Участковый детектив / Сезон: 1 (1) / Серии: 54-74 из 74 (Наталья Савченко) [2011, детектив, SATRip]

Страницы:  1

Ответить
Автор
Сообщение

rombel

Стаж: 10 лет 6 месяцев

Сообщений: 39

rombel · 29-Сен-13 16:27 (5 лет 1 месяц назад, ред. 29-Сен-13 18:34)

Участковый детектив
Год выпуска: 2011
Производство: "Первый канал"
Жанр: детектив
Продолжительность: 00:31:00
Субтитры: нет
Режиссёр: Наталья Савченко
В ролях: Сергей Перегудов, Владимир Матвеев, Михаил Трясоруков, Дмитрий Аверин, Зоя Буряк, Сергей Уманов, Андрей Мокеев, Вадим Гущин, Сергей Колос, Михаил Черняк
Описание: Они очень разные - майор милиции Владимир Макеев и бывший опер, а ныне частный детектив Андрей Савельев. У обоих за плечами служба в убойном отделе, множество сложнейших расследований. Однако так уж сложилась судьба, что пришлось Макееву уйти с переднего края борьбы с преступностью в "тихую заводь" и коротать свои дни в опорном пункте полиции в должности участкового.
Доп. информация: Продолжение сериала. Начало http://1.maintracker.org/forum/viewtopic.php?t=3738990
Отсутствует 71 серия. Если у кого найдется - отпишите в личку, включу в раздачу.
Все раздачи сериала: http://1.maintracker.org/forum/tracker.php?f=9&nm=%D3%F7%E0%F1%F2%EA%EE%E2%FB%E9+...EA%F2%E8%E2+2011 Качество: SATRip
Формат: AVI
Видео кодек: DivX
Аудио кодек: MP3
Видео: 704x448 (1.571:1), 25 fps, DivX 5 1500 kbps avg, 0.25 bit/pixel
Аудио: 48 kHz, MPEG Layer 2, 2 ch, ~192.00 kbps avg
MI
General
Complete name : D:\Film\Участковый детектив\Uchastkoviy.Detektiv.54.serija.2011.SATRip.avi
Format : AVI
Format/Info : Audio Video Interleave
File size : 383 MiB
Duration : 31mn 27s
Overall bit rate : 1 702 Kbps
Writing application : VirtualDubModRus 1.5.10.1 (build 2439/release)
Writing library : VirtualDubMod build 2439/release
Video
ID : 0
Format : MPEG-4 Visual
Format settings, BVOP : 2
Format settings, QPel : No
Format settings, GMC : No warppoints
Format settings, Matrix : Default (H.263)
Muxing mode : Packed bitstream
Codec ID : DX50
Codec ID/Hint : DivX 5
Duration : 31mn 27s
Bit rate : 1 500 Kbps
Width : 704 pixels
Height : 448 pixels
Display aspect ratio : 1.571
Frame rate : 25.000 fps
Color space : YUV
Chroma subsampling : 4:2:0
Bit depth : 8 bits
Scan type : Progressive
Compression mode : Lossy
Bits/(Pixel*Frame) : 0.190
Stream size : 338 MiB (88%)
Writing library : DivX 6.8.5 (UTC 2009-08-20)
Audio
ID : 1
Format : MPEG Audio
Format version : Version 1
Format profile : Layer 2
Codec ID : 50
Duration : 31mn 27s
Bit rate mode : Constant
Bit rate : 192 Kbps
Channel(s) : 2 channels
Sampling rate : 48.0 KHz
Compression mode : Lossy
Stream size : 43.2 MiB (11%)
Alignment : Aligned on interleaves
Interleave, duration : 40 ms (1.00 video frame)
Interleave, preload duration : 504 ms
Скриншоты
Download
Чтобы скачать .torrent файл необходима регистрация
Сайт не распространяет и не хранит электронные версии произведений, а лишь предоставляет доступ к создаваемому пользователями каталогу ссылок на торрент-файлы, которые содержат только списки хеш-сумм
[Профиль]  [ЛС] 
 

Сударыня

Moderator gray

Стаж: 11 лет 6 месяцев

Сообщений: 11132

Сударыня · 29-Сен-13 16:52 (спустя 25 мин.)

[Цитировать] 

rombel писал(а):
Ссылка не рабочая.
rombel писал(а):
61069740Видео: 704x448 (1.571:1), 25 fps, DivX 5 1500 kbps avg, 0.25 bit/pixel
Скриншоты не соответствуют заявленным тех.данным. Они у вас 640px × 341px и 640px × 407px.
О скриншотах
Добавьте, пожалуйста, сэмпл.
Как сделать семпл
[Профиль]  [ЛС] 

Сударыня

Moderator gray

Стаж: 11 лет 6 месяцев

Сообщений: 11132

Сударыня · 29-Сен-13 18:06 (спустя 1 час 14 мин.)

[Цитировать] 

rombel писал(а):
61070322Исправил
Благодарю.
Вот только на третьем скрине уж очень вытянуты лица.
[Профиль]  [ЛС] 

rombel

Стаж: 10 лет 6 месяцев

Сообщений: 39

rombel · 29-Сен-13 18:36 (спустя 29 мин.)

[Цитировать] 

Сударыня писал(а):
61071155Вот только на третьем скрине уж очень вытянуты лица.
Перезалил скриншот с другой серии. Почему то в этой серии все сриншоты получаются вытянутые, хотя в фильме нормальные. Хотя у этого актера лицо довольно вытянутое
[Профиль]  [ЛС] 

Сударыня

Moderator gray

Стаж: 11 лет 6 месяцев

Сообщений: 11132

Сударыня · 29-Сен-13 19:26 (спустя 50 мин.)

[Цитировать] 

rombel писал(а):
61071605Почему то в этой серии все сриншоты получаются вытянутые, хотя в фильме нормальные.
А это главное
[Профиль]  [ЛС] 

Fetisov9

Стаж: 10 лет 10 месяцев

Сообщений: 53


Fetisov9 · 01-Окт-13 11:20 (спустя 1 день 15 часов)

[Цитировать] 

Цитата:
61069740В ролях: Сергей Перегудов, Владимир Матвеев, Михаил Трясоруков, Дмитрий Аверин, Зоя Буряк, Сергей Уманов, Андрей Мокеев, Вадим Гущин, Сергей Колос, Михаил Черняк
Вы прекратите обманывать народ или нет??????????????????7!!!!!!!!!!!!!!!!!!!!!!!!!!!!!!!!!!!!
[Профиль]  [ЛС] 

rombel

Стаж: 10 лет 6 месяцев

Сообщений: 39

rombel · 01-Окт-13 13:46 (спустя 2 часа 26 мин.)

[Цитировать] 

Fetisov9 писал(а):
Вы прекратите обманывать народ или нет??????????????????7!!!!!!!!!!!!!!!!!!!!!!!!!!!!!!!!!!!!
Ну, не знаю. На кинопоиске так написано http://www.kinopoisk.ru/film/624637/cast/
[Профиль]  [ЛС] 

ryvera1

Стаж: 7 лет 7 месяцев

Сообщений: 2


ryvera1 · 21-Янв-18 21:27 (спустя 4 года 3 месяца)

[Цитировать] 

На кинопоиске написано: Режиссер - Дмитрий Тихон (http://www.kinopoisk.ru/film/624637/cast/)
[Профиль]  [ЛС] 

lenchik66

Стаж: 10 лет 4 месяца

Сообщений: 92

lenchik66 · 08-Ноя-18 21:52 (спустя 9 месяцев)

[Цитировать] 

ув. раздающий на сайте в кинозале появились серии до81. но скачать трудно из за скорости. и они в другом формате.можете их сюда добавить переделать в формат avi
[Профиль]  [ЛС] 
 
Ответить
Loading...
Error