Адрес РуТрекера для пользователей РФ - MainTracker.org

Расскажи друзьям:  

Joss Stone with special guest Mavis Staples - Soundstage [2005, soul, pop, HDTV 1080p]

Страницы:  1

Ответить
Автор
Сообщение

Valeronius

Стаж: 8 лет 3 месяца

Сообщений: 3329

Valeronius · 06-Окт-13 12:51 (4 года 7 месяцев назад)

Joss Stone with special guest Mavis Staples - Soundstage
Жанр: soul, pop
Продолжительность: 00:56:06
Год выпуска: 2005
Описание:
Joss Stone with special guest Mavis Staples - Soundstage, 2005
Треклист:
1. Super Duper Love (JS)
2. Fell In Love With A Boy (JS)
3. Under Pressure (Queen's Cover) (JS)
4. Have A Little Faith (MS)
5. The Weight (MS)
6. Respect Yourself (MS)
7. Chokin' Kind (JS)
8. Right To Be Wrong (JS)
9. You Had Me (JS)
10. Spoiled (JS)
11. I'll Take You There (JS & MS)
Качество: HDTVRip 1080p
Контейнер: MKV
Видео кодек: H.264
Аудио кодек: AC3
Видео: 1920x1080 (16:9), 25.00 fps, AVC, MKV, 8180 Кбит, 0.158 bits/pixel
Аудио: 48.0 KHz, AC3, 2 ch, stereo, 256 Kbps
Отчёт MediaInfo / BDInfo
Полное имя                               : G:\DVD\Joss Stone (2005)\Joss Stone & Mavis Staples - Soundstage.mkv
Формат : Matroska
Размер файла : 3,37 Гбайт
Продолжительность : 56 м.
Общий поток : 8607 Кбит/сек
Программа кодирования : Lavf51.12.1
Библиотека кодирования : Lavf51.12.1
Видео
Идентификатор : 1
Формат : AVC
Формат/Информация : Advanced Video Codec
Профиль формата : Baseline@L4.0
Параметр CABAC формата : Нет
Параметр ReFrames формата : 1 кадр
Параметр GOP формата : M=1, N=12
Идентификатор кодека : V_MPEG4/ISO/AVC
Продолжительность : 56 м.
Вид битрейта : Переменный
Битрейт : 8180 Кбит/сек
Максимальный битрейт : 12,0 Мбит/сек
Ширина : 1920 пикселей
Высота : 1080 пикселей
Соотношение сторон : 16:9
Частота кадров : 25,000 кадров/сек
Частота кадров в оригинале : 24,000 кадра/сек
Цветовое пространство : YUV
Субдискретизация насыщенности : 4:2:0
Битовая глубина : 8 бит
Тип развёртки : Прогрессивная
Бит/(Пиксели*Кадры) : 0.158
Размер потока : 3,21 Гбайт (95%)
Язык : English / English
Аудио
Идентификатор : 2
Формат : AC-3
Формат/Информация : Audio Coding 3
Расширение режима : CM (complete main)
Идентификатор кодека : A_AC3
Продолжительность : 56 м.
Вид битрейта : Постоянный
Битрейт : 256 Кбит/сек
Каналы : 2 канала
Расположение каналов : Front: L R
Частота : 48,0 КГц
Битовая глубина : 16 бит
Метод сжатия : С потерями
Размер потока : 103 Мбайт (3%)
Язык : English / English
Download
Чтобы скачать .torrent файл необходима регистрация
Сайт не распространяет и не хранит электронные версии произведений, а лишь предоставляет доступ к создаваемому пользователями каталогу ссылок на торрент-файлы, которые содержат только списки хеш-сумм
[Профиль]  [ЛС] 
 

tatamimi

Стаж: 4 года 6 месяцев

Сообщений: 41

tatamimi · 19-Янв-14 03:17 (спустя 3 месяца 12 дней)

[Цитировать] 

i love this woman
[Профиль]  [ЛС] 
 
Ответить
Loading...
Error