Адрес РуТрекера для пользователей РФ - MainTracker.org

Расскажи друзьям:  

(Gothic Rock) Siela - Dali - 2006, FLAC (image+.cue), lossless

Страницы:  1

Ответить
Автор
Сообщение

denumber

Стаж: 9 лет 1 месяц

Сообщений: 153

denumber · 17-Ноя-13 05:12 (4 года 6 месяцев назад)

Siela / Dali
Жанр: Gothic Rock
Страна-производитель диска: Литва
Год издания: 2006
Издатель (лейбл): Dangus
Номер по каталогу: DGCD019
Страна: Литва
Аудиокодек: FLAC (*.flac)
Тип рипа: image+.cue
Битрейт аудио: lossless
Продолжительность: 43:29
Источник (релизер): Собственный рип
Наличие сканов в содержимом раздачи: нет
Треклист:
01. Hallo Hallo (4:09)
02. Salvadoro Dali (4:48)
03. Tavo Dievai (4:01)
04. Wings Of Desire (3:57)
05. Nakties Paukštis (4:40)
06. The Crow (5:40)
07. Cold (4:23)
08. Skulptūra (3:20)
09. Rain (4:43)
10. Žemė Ir Dangus (3:47)
Video. The Crow (5:39)
Лог создания рипа
Exact Audio Copy V1.0 beta 3 from 29. August 2011
EAC extraction logfile from 29. August 2013, 0:58
Siela / Dali
Used drive : TSSTcorpCDDVDW SH-S203B Adapter: 0 ID: 5
Read mode : Secure
Utilize accurate stream : Yes
Defeat audio cache : Yes
Make use of C2 pointers : No
Read offset correction : 6
Overread into Lead-In and Lead-Out : No
Fill up missing offset samples with silence : Yes
Delete leading and trailing silent blocks : No
Null samples used in CRC calculations : Yes
Used interface : Native Win32 interface for Win NT & 2000
Used output format : User Defined Encoder
Selected bitrate : 128 kBit/s
Quality : High
Add ID3 tag : Yes
Command line compressor : C:\Program Files (x86)\Exact Audio Copy\Flac\flac.exe
Additional command line options : -V -8 -T "Date=%year%" -T "Genre=%genre%" %source%
TOC of the extracted CD
Track | Start | Length | Start sector | End sector
---------------------------------------------------------
1 | 0:00.00 | 4:09.07 | 0 | 18681
2 | 4:09.07 | 4:48.25 | 18682 | 40306
3 | 8:57.32 | 4:01.04 | 40307 | 58385
4 | 12:58.36 | 3:57.24 | 58386 | 76184
5 | 16:55.60 | 4:40.17 | 76185 | 97201
6 | 21:36.02 | 5:39.66 | 97202 | 122692
7 | 27:15.68 | 4:23.06 | 122693 | 142423
8 | 31:38.74 | 3:20.07 | 142424 | 157430
9 | 34:59.06 | 4:42.54 | 157431 | 178634
10 | 39:41.60 | 3:46.61 | 178635 | 195645
11 | 46:00.46 | 3:49.00 | 207046 | 224220
Range status and errors
Selected range
Filename G:\_CDRIP_\Siela - 2005 - Dali\Siela - Dali.wav
Peak level 97.7 %
Extraction speed 6.4 X
Range quality 100.0 %
Test CRC 066BC601
Copy CRC 066BC601
Copy OK
No errors occurred
AccurateRip summary
Track 1 not present in database
Track 2 not present in database
Track 3 not present in database
Track 4 not present in database
Track 5 not present in database
Track 6 not present in database
Track 7 not present in database
Track 8 not present in database
Track 9 not present in database
Track 10 not present in database
None of the tracks are present in the AccurateRip database
End of status report
---- CUETools DB Plugin V2.1.4
[CTDB TOCID: Wqe928kzzCsIkuYpL07tZPNSrSg-] database access error: Невозможно разрешить удаленное имя: 'db.cuetools.net'
==== Log checksum B2DFED90AC8D2232B6EDF022F65BFA579EA8D7A76D77B58285F9579186694EBE ====
Об альбоме (сборнике)
"Это уже 11 или 12 релиз по счёту от этой, известной литовской группы, существующей с 1990 года, являющейся, в общем-то, основателями гот-сцены Литвы. Создавая с незапамятных времён качественный, мощный, насыщенный и атмосферный готик рок, они давно завоевали свой прочный статус на европейской сцене.
Данный альбом выдержан в лучших традициях жанра, с сильными жесткими гитарными партиями, варьирующимся вокалом, некоторыми внедрёнными элементами синт-готики. В альбоме присутствуют как драйвовые жесткие вещи - так и лирический стафф: особенно выделяется последний трек "Zeme Ir Dangus" с женским сторонним вокалом, хотя, солирует везде мужской голос. Особенную же привлекательность создают здесь треки на литовском языке."
(c) Eisstille
Download
Чтобы скачать .torrent файл необходима регистрация
Сайт не распространяет и не хранит электронные версии произведений, а лишь предоставляет доступ к создаваемому пользователями каталогу ссылок на торрент-файлы, которые содержат только списки хеш-сумм
[Профиль]  [ЛС] 
 

kistuk

Стаж: 8 лет 11 месяцев

Сообщений: 8


kistuk · 22-Апр-18 19:36 (спустя 4 года 5 месяцев)

[Цитировать] 

Доброе время суток. Может имеете первые альбомы, 90ых годов? Скиньте пожалуйсто
[Профиль]  [ЛС] 
 
Ответить
Loading...
Error