Адрес РуТрекера для пользователей РФ - 11.MainTracker.org

Расскажи друзьям:  

(Blues, Blues Rock) [CD] Barry Goldberg - Stoned Again - 2002 (Antone's Records TMG-ANT 0058 USA), FLAC (tracks+.cue), lossless

Страницы:  1

Ответить
Автор
Сообщение

Ready.zp

Moderator

Стаж: 10 лет 8 месяцев

Сообщений: 5356

Ready.zp · 13-Дек-13 14:20 (5 лет 6 месяцев назад)

Barry Goldberg - Stoned Again
Жанр: Blues, Blues Rock
Носитель: CD
Страна-производитель диска: USA
Год издания диска: 2002
Издатель (лейбл): Antone's Records
Номер по каталогу: TMG-ANT 0058
Страна: USA
Аудио кодек: FLAC (*.flac)
Тип рипа: tracks+.cue
Битрейт аудио: lossless
Продолжительность: 00:45:17
Источник (релизер): gabriel
Наличие сканов в содержимом раздачи:
Треклист:
01. Stoned 02:39
02. Tumbling Dice 03:49
03. Jumping Jack Flash 04:08
04. Ventilator Blues 03:54
05. Heart Of Stone 03:33
06. Parachute Woman 04:07
07. Let It Bleed 03:29
08. Think I'm Going Mad 04:43
09. Good Times, Bad Times 03:08
10. Melody 05:10
11. As Tears Go By 02:32
12. Some Girls 03:29
13. (I Can't Get No) Satisfaction 00:30
Лог создания рипа
X Lossless Decoder version 20091202 (114.5)
XLD extraction logfile from 2009-12-03 19:25:58 +0100
Barry Goldberg / Stoned Again
Used drive : PIONEER DVD-RW DVR-K06A (revision Q631)
Use cdparanoia mode : YES (CDParanoia III 10.2 engine)
Disable audio cache : OK for the drive with cache less than 2750KB
Make use of C2 pointers : NO
Read offset correction : 48
Max retry count : 100
TOC of the extracted CD
Track | Start | Length | Start sector | End sector
---------------------------------------------------------
1 | 00:00:00 | 02:39:15 | 0 | 11939
2 | 02:39:15 | 03:49:07 | 11940 | 29121
3 | 06:28:22 | 04:08:69 | 29122 | 47790
4 | 10:37:16 | 03:54:64 | 47791 | 65404
5 | 14:32:05 | 03:33:62 | 65405 | 81441
6 | 18:05:67 | 04:07:26 | 81442 | 99992
7 | 22:13:18 | 03:29:23 | 99993 | 115690
8 | 25:42:41 | 04:43:20 | 115691 | 136935
9 | 30:25:61 | 03:08:23 | 136936 | 151058
10 | 33:34:09 | 05:10:22 | 151059 | 174330
11 | 38:44:31 | 02:32:66 | 174331 | 185796
12 | 41:17:22 | 03:29:30 | 185797 | 201501
13 | 44:46:52 | 00:30:37 | 201502 | 203788
Track 01
Filename : /Users/gabriel/Desktop/Barry Goldberg - Stoned Again (2002) [FLAC]/01 - Stoned.flac
CRC32 hash (test run) : 07BFD9C2
CRC32 hash : 07BFD9C2
CRC32 hash (skip zero) : 861FAE99
AccurateRip signature : 0D1A296C
->Track not present in AccurateRip database.
Statistics
Read error : 0
Skipped (treated as error) : 0
Edge jitter error (maybe fixed) : 0
Atom jitter error (maybe fixed) : 0
Drift error (maybe fixed) : 0
Dropped bytes error (maybe fixed) : 0
Duplicated bytes error (maybe fixed) : 0
Inconsistency in error sectors : 0
Track 02
Filename : /Users/gabriel/Desktop/Barry Goldberg - Stoned Again (2002) [FLAC]/02 - Tumbling Dice.flac
CRC32 hash (test run) : DC08A82D
CRC32 hash : DC08A82D
CRC32 hash (skip zero) : C581DD38
AccurateRip signature : CE3FF14D
->Track not present in AccurateRip database.
Statistics
Read error : 0
Skipped (treated as error) : 0
Edge jitter error (maybe fixed) : 0
Atom jitter error (maybe fixed) : 0
Drift error (maybe fixed) : 0
Dropped bytes error (maybe fixed) : 0
Duplicated bytes error (maybe fixed) : 0
Inconsistency in error sectors : 0
Track 03
Filename : /Users/gabriel/Desktop/Barry Goldberg - Stoned Again (2002) [FLAC]/03 - Jumping Jack Flash.flac
CRC32 hash (test run) : C0D4AA60
CRC32 hash : C0D4AA60
CRC32 hash (skip zero) : 90012148
AccurateRip signature : C4C607E4
->Track not present in AccurateRip database.
Statistics
Read error : 0
Skipped (treated as error) : 0
Edge jitter error (maybe fixed) : 0
Atom jitter error (maybe fixed) : 0
Drift error (maybe fixed) : 0
Dropped bytes error (maybe fixed) : 0
Duplicated bytes error (maybe fixed) : 0
Inconsistency in error sectors : 0
Track 04
Filename : /Users/gabriel/Desktop/Barry Goldberg - Stoned Again (2002) [FLAC]/04 - Ventilator Blues.flac
CRC32 hash (test run) : 6514593D
CRC32 hash : 6514593D
CRC32 hash (skip zero) : 1D7B159A
AccurateRip signature : 6E9D815F
->Track not present in AccurateRip database.
Statistics
Read error : 0
Skipped (treated as error) : 0
Edge jitter error (maybe fixed) : 0
Atom jitter error (maybe fixed) : 0
Drift error (maybe fixed) : 0
Dropped bytes error (maybe fixed) : 0
Duplicated bytes error (maybe fixed) : 0
Inconsistency in error sectors : 0
Track 05
Filename : /Users/gabriel/Desktop/Barry Goldberg - Stoned Again (2002) [FLAC]/05 - Heart Of Stone.flac
CRC32 hash (test run) : 7011E12E
CRC32 hash : 7011E12E
CRC32 hash (skip zero) : B96A3260
AccurateRip signature : 346BECB8
->Track not present in AccurateRip database.
Statistics
Read error : 0
Skipped (treated as error) : 0
Edge jitter error (maybe fixed) : 1
Atom jitter error (maybe fixed) : 1
Drift error (maybe fixed) : 0
Dropped bytes error (maybe fixed) : 0
Duplicated bytes error (maybe fixed) : 0
Inconsistency in error sectors : 0
Track 06
Filename : /Users/gabriel/Desktop/Barry Goldberg - Stoned Again (2002) [FLAC]/06 - Parachute Woman.flac
CRC32 hash (test run) : F3640874
CRC32 hash : F3640874
CRC32 hash (skip zero) : F7B11B79
AccurateRip signature : F704B2EC
->Track not present in AccurateRip database.
Statistics
Read error : 0
Skipped (treated as error) : 0
Edge jitter error (maybe fixed) : 0
Atom jitter error (maybe fixed) : 0
Drift error (maybe fixed) : 0
Dropped bytes error (maybe fixed) : 0
Duplicated bytes error (maybe fixed) : 0
Inconsistency in error sectors : 0
Track 07
Filename : /Users/gabriel/Desktop/Barry Goldberg - Stoned Again (2002) [FLAC]/07 - Let It Bleed.flac
CRC32 hash (test run) : 25378CD9
CRC32 hash : 25378CD9
CRC32 hash (skip zero) : 83871BB0
AccurateRip signature : AB886A82
->Track not present in AccurateRip database.
Statistics
Read error : 0
Skipped (treated as error) : 0
Edge jitter error (maybe fixed) : 0
Atom jitter error (maybe fixed) : 0
Drift error (maybe fixed) : 0
Dropped bytes error (maybe fixed) : 0
Duplicated bytes error (maybe fixed) : 0
Inconsistency in error sectors : 0
Track 08
Filename : /Users/gabriel/Desktop/Barry Goldberg - Stoned Again (2002) [FLAC]/08 - Think I'm Goin' Mad.flac
CRC32 hash (test run) : 7D527126
CRC32 hash : 7D527126
CRC32 hash (skip zero) : 0111B0A6
AccurateRip signature : 9D8CF4FF
->Track not present in AccurateRip database.
Statistics
Read error : 0
Skipped (treated as error) : 0
Edge jitter error (maybe fixed) : 0
Atom jitter error (maybe fixed) : 0
Drift error (maybe fixed) : 0
Dropped bytes error (maybe fixed) : 0
Duplicated bytes error (maybe fixed) : 0
Inconsistency in error sectors : 0
Track 09
Filename : /Users/gabriel/Desktop/Barry Goldberg - Stoned Again (2002) [FLAC]/09 - Good Times Bad Times.flac
CRC32 hash (test run) : 34C3F928
CRC32 hash : 34C3F928
CRC32 hash (skip zero) : 19DDA01C
AccurateRip signature : EE6153BA
->Track not present in AccurateRip database.
Statistics
Read error : 0
Skipped (treated as error) : 0
Edge jitter error (maybe fixed) : 0
Atom jitter error (maybe fixed) : 0
Drift error (maybe fixed) : 0
Dropped bytes error (maybe fixed) : 0
Duplicated bytes error (maybe fixed) : 0
Inconsistency in error sectors : 0
Track 10
Filename : /Users/gabriel/Desktop/Barry Goldberg - Stoned Again (2002) [FLAC]/10 - Melody.flac
CRC32 hash (test run) : 288E1E0A
CRC32 hash : 288E1E0A
CRC32 hash (skip zero) : C96A3ED9
AccurateRip signature : 06A7E12A
->Track not present in AccurateRip database.
Statistics
Read error : 0
Skipped (treated as error) : 0
Edge jitter error (maybe fixed) : 0
Atom jitter error (maybe fixed) : 0
Drift error (maybe fixed) : 0
Dropped bytes error (maybe fixed) : 0
Duplicated bytes error (maybe fixed) : 0
Inconsistency in error sectors : 0
Track 11
Filename : /Users/gabriel/Desktop/Barry Goldberg - Stoned Again (2002) [FLAC]/11 - As Tears Go By.flac
CRC32 hash (test run) : A4029113
CRC32 hash : A4029113
CRC32 hash (skip zero) : 7D41D856
AccurateRip signature : 19268BBE
->Track not present in AccurateRip database.
Statistics
Read error : 0
Skipped (treated as error) : 0
Edge jitter error (maybe fixed) : 0
Atom jitter error (maybe fixed) : 0
Drift error (maybe fixed) : 0
Dropped bytes error (maybe fixed) : 0
Duplicated bytes error (maybe fixed) : 0
Inconsistency in error sectors : 0
Track 12
Filename : /Users/gabriel/Desktop/Barry Goldberg - Stoned Again (2002) [FLAC]/12 - Some Girls.flac
CRC32 hash (test run) : C3F62274
CRC32 hash : C3F62274
CRC32 hash (skip zero) : EAF8ED02
AccurateRip signature : 8F5059DB
->Track not present in AccurateRip database.
Statistics
Read error : 0
Skipped (treated as error) : 0
Edge jitter error (maybe fixed) : 0
Atom jitter error (maybe fixed) : 0
Drift error (maybe fixed) : 0
Dropped bytes error (maybe fixed) : 0
Duplicated bytes error (maybe fixed) : 0
Inconsistency in error sectors : 0
Track 13
Filename : /Users/gabriel/Desktop/Barry Goldberg - Stoned Again (2002) [FLAC]/13 - (I Can't Get No) Satisfaction.flac
CRC32 hash (test run) : D1168D16
CRC32 hash : D1168D16
CRC32 hash (skip zero) : 734E2133
AccurateRip signature : 45BD723C
->Track not present in AccurateRip database.
Statistics
Read error : 0
Skipped (treated as error) : 0
Edge jitter error (maybe fixed) : 0
Atom jitter error (maybe fixed) : 0
Drift error (maybe fixed) : 0
Dropped bytes error (maybe fixed) : 0
Duplicated bytes error (maybe fixed) : 0
Inconsistency in error sectors : 0
No errors occurred
End of status report
Содержание индексной карты (.CUE)
TITLE "Stoned Again"
PERFORMER "Barry Goldberg"
REM GENRE "Blues"
REM DATE 2002
FILE "01 - Stoned.flac" WAVE
TRACK 01 AUDIO
TITLE "Stoned"
INDEX 01 00:00:00
FILE "02 - Tumbling Dice.flac" WAVE
TRACK 02 AUDIO
TITLE "Tumbling Dice"
INDEX 01 00:00:00
FILE "03 - Jumping Jack Flash.flac" WAVE
TRACK 03 AUDIO
TITLE "Jumping Jack Flash"
INDEX 01 00:00:00
FILE "04 - Ventilator Blues.flac" WAVE
TRACK 04 AUDIO
TITLE "Ventilator Blues"
INDEX 01 00:00:00
FILE "05 - Heart Of Stone.flac" WAVE
TRACK 05 AUDIO
TITLE "Heart Of Stone"
INDEX 01 00:00:00
FILE "06 - Parachute Woman.flac" WAVE
TRACK 06 AUDIO
TITLE "Parachute Woman"
INDEX 01 00:00:00
FILE "07 - Let It Bleed.flac" WAVE
TRACK 07 AUDIO
TITLE "Let It Bleed"
INDEX 01 00:00:00
FILE "08 - Think I'm Goin' Mad.flac" WAVE
TRACK 08 AUDIO
TITLE "Think I'm Goin' Mad"
INDEX 01 00:00:00
FILE "09 - Good Times, Bad Times.flac" WAVE
TRACK 09 AUDIO
TITLE "Good Times, Bad Times"
INDEX 01 00:00:00
FILE "10 - Melody.flac" WAVE
TRACK 10 AUDIO
TITLE "Melody"
INDEX 01 00:00:00
FILE "11 - As Tears Go By.flac" WAVE
TRACK 11 AUDIO
TITLE "As Tears Go By"
INDEX 01 00:00:00
FILE "12 - Some Girls.flac" WAVE
TRACK 12 AUDIO
TITLE "Some Girls"
INDEX 01 00:00:00
FILE "13 - (I Can't Get No) Satisfaction.flac" WAVE
TRACK 13 AUDIO
TITLE "(I Can't Get No) Satisfaction"
INDEX 01 00:00:00
Лог проверки качества
-----------------------
DON'T MODIFY THIS FILE
-----------------------
PERFORMER: auCDtect Task Manager, ver. 1.5.1RC4 build 1.5.1.5
Copyright (c) 2008-2010 y-soft. All rights reserved
http://y-soft.org
ANALYZER: auCDtect: CD records authenticity detector, version 0.8.2
Copyright (c) 2004 Oleg Berngardt. All rights reserved.
Copyright (c) 2004 Alexander Djourik. All rights reserved.
FILE: 13 - (I Can't Get No) Satisfaction.flac
Size: 6613623 Hash: A022AA6E95AEBE5A3B807E10439C1EA5 Accuracy: -m0
Conclusion: CDDA 100%
Signature: DC0675D161DA4172CCF0F01D32188E7893851B28
FILE: 12 - Some Girls.flac
Size: 25842186 Hash: D7B81CCC6E2260CB140BFF9EEC30072D Accuracy: -m0
Conclusion: CDDA 100%
Signature: A317BFD3BD2E21891857BF1B799F6705E5E344A8
FILE: 11 - As Tears Go By.flac
Size: 16874655 Hash: 403DED4DFF57A6E50AE21C1B48066DEB Accuracy: -m0
Conclusion: CDDA 100%
Signature: F4A42B69F8355E0072529038CAC64D380ED90CE5
FILE: 10 - Melody.flac
Size: 35417574 Hash: 7E10DF99948251D5635534E8796D2C3B Accuracy: -m0
Conclusion: CDDA 99%
Signature: 70343F7FBADE64D4E6ED2209DF22C7243C694BEF
FILE: 09 - Good Times, Bad Times.flac
Size: 22439665 Hash: BA18D7A4580DD620E4F369F8C52D7117 Accuracy: -m0
Conclusion: CDDA 100%
Signature: 6E010F1AFDB9CDC44463FC6B791CEE4F3C0BDD8B
FILE: 08 - Think I'm Going Mad.flac
Size: 33147743 Hash: BDCD3D29F50437C005A2F25B02BDB17F Accuracy: -m0
Conclusion: CDDA 100%
Signature: B95905C4B3FB5CCDB85A33BB7011139908398681
FILE: 07 - Let It Bleed.flac
Size: 26543378 Hash: AD56B11FD703E39E4AEA1A387D014FEA Accuracy: -m0
Conclusion: CDDA 100%
Signature: 9356F359232BD97400EC6A23753FA7C229FA1DAE
FILE: 06 - Parachute Woman.flac
Size: 29046511 Hash: 8ADD8361E3B7025871713E4747D2D91E Accuracy: -m0
Conclusion: CDDA 100%
Signature: 594BD5DE824BE537F8BFB7D8D5E5B935D5E4DCF7
FILE: 05 - Heart Of Stone.flac
Size: 26630240 Hash: 6CA619C4C6808A33AFB741D4C5B66BF2 Accuracy: -m0
Conclusion: CDDA 100%
Signature: 3F20508677444B216FB3AE66068277637BFA48B3
FILE: 04 - Ventilator Blues.flac
Size: 30832325 Hash: 2F07C04F8EBDC4F38A73E4787CEC350E Accuracy: -m0
Conclusion: CDDA 100%
Signature: 15DA8D5E180E05461F2EA2F2135DA215A0F57A21
FILE: 03 - Jumping Jack Flash.flac
Size: 31892577 Hash: 826E26330CB95369EAC91ED5C8553A9D Accuracy: -m0
Conclusion: CDDA 100%
Signature: E23EBAA0DC79EEA1A49A06C6EC7B139EED1FD82D
FILE: 02 - Tumbling Dice.flac
Size: 30307871 Hash: 48BA6919545072D7B5897997837C5F6C Accuracy: -m0
Conclusion: CDDA 100%
Signature: 18A62A4BBA8ACD9FB8069CD2DE3F536D3651BC1A
FILE: 01 - Stoned.flac
Size: 21181029 Hash: A6C03D3F900F595E552DB7B4C4CEA785 Accuracy: -m0
Conclusion: CDDA 99%
Signature: F77B1773CFA8E0C9EE64DCD0436F7B45F33404E8
CUETools log
[CUETools log; Date: 13.12.2013 0:01:57; Version: 2.1.4]
[CTDB TOCID: 3apJPXODqH7gCdIh2HrlYtOfTeQ-] found.
Track | CTDB Status
1 | (1/1) Accurately ripped
2 | (1/1) Accurately ripped
3 | (1/1) Accurately ripped
4 | (1/1) Accurately ripped
5 | (1/1) Accurately ripped
6 | (1/1) Accurately ripped
7 | (1/1) Accurately ripped
8 | (1/1) Accurately ripped
9 | (1/1) Accurately ripped
10 | (1/1) Accurately ripped
11 | (1/1) Accurately ripped
12 | (1/1) Accurately ripped
13 | (1/1) Accurately ripped
[AccurateRip ID: 0016f61e-00e68136-bb0a9d0d] found.
Track [ CRC | V2 ] Status
01 [0d1a296c|bddb0d77] (1+0/1) Accurately ripped
02 [ce3ff14d|c25dc808] (1+0/1) Accurately ripped
03 [c4c607e4|aab47c69] (1+0/1) Accurately ripped
04 [6e9d815f|3daae372] (1+0/1) Accurately ripped
05 [346becb8|6f3dee08] (1+0/1) Accurately ripped
06 [f704b2ec|8de7d34d] (1+0/1) Accurately ripped
07 [ab886a82|770b15d1] (1+0/1) Accurately ripped
08 [9d8cf4ff|56101a06] (1+0/1) Accurately ripped
09 [ee6153ba|d8b3f774] (1+0/1) Accurately ripped
10 [06a7e12a|af4ab2e8] (1+0/1) Accurately ripped
11 [19268bbe|21dabb1a] (1+0/1) Accurately ripped
12 [8f5059db|31db4f56] (1+0/1) Accurately ripped
13 [45bd723c|1741e78e] (1+0/1) Accurately ripped
Track Peak [ CRC32 ] [W/O NULL]
-- 100,0 [76E37944] [00CB58F5]
01 100,0 [07BFD9C2] [861FAE99]
02 100,0 [DC08A82D] [C581DD38]
03 100,0 [C0D4AA60] [90012148]
04 100,0 [6514593D] [1D7B159A]
05 100,0 [7011E12E] [B96A3260]
06 100,0 [F3640874] [F7B11B79]
07 100,0 [25378CD9] [83871BB0]
08 100,0 [7D527126] [0111B0A6]
09 100,0 [34C3F928] [19DDA01C]
10 90,4 [288E1E0A] [C96A3ED9]
11 90,5 [A4029113] [7D41D856]
12 100,0 [C3F62274] [EAF8ED02]
13 45,5 [D1168D16] [734E2133]
Доп. информация
Состав
Barry Goldberg - piano, Hammond B3 organ, wurlitzer piano
Denny Freeman - lead & rhythm guitars
Gregg Sutton - bass guitars
Don Heffington - drums, percussion
Mick Taylor - guitar on "Ventilator Blues", "Think I'm Going Mad"
Ernie Watts - saxophone on "Stoned", "Ventilator Blues", "Think I'm Going Mad", "Melody"
Tom Junior Morgan - saxophone on "Heart Of Stone", "Some Girls"
John "Juke" Logan - harmonica on "Stoned", "Tumbling Dice", "Good Times, Bad Times", vocal on "Stoned"
Carla Olson - electric guitar on "Tumbling Dice", "Let It Bleed", acoustic guitar on "Tumbling Dice", "Think I'm Going Mad", "As Tears Go By", "Some Girls"
Back, Disc, Spectrogram
Download
Чтобы скачать .torrent файл необходима регистрация
Сайт не распространяет и не хранит электронные версии произведений, а лишь предоставляет доступ к создаваемому пользователями каталогу ссылок на торрент-файлы, которые содержат только списки хеш-сумм
[Профиль]  [ЛС] 
 
 
Ответить
Loading...
Error