Адрес РуТрекера для пользователей РФ - MainTracker.org

Расскажи друзьям:  

Enrique Iglesias feat Usher & Lil Wayne - Dirty Dancer [MasterRip 1080p] [2011, RnB, Rap, Hip-Hop, MasterRip 1080p]

Страницы:  1

Ответить
Автор
Сообщение

LP And One

Стаж: 9 лет 7 месяцев

Сообщений: 111

LP And One · 14-Янв-14 05:25 (4 года 6 месяцев назад, ред. 22-Янв-14 18:00)

Enrique Iglesias feat Usher & Lil Wayne - Dirty Dancer [MasterRip 1080p]
Жанр: RnB, Rap, Hip-Hop
Продолжительность: 04:15
Год выпуска: 2011
Качество: Master
Контейнер: MP4
Видео: AVC | 1920x1080 | ~12.1 Mbps | 25.000 fps
Аудио: AAC | 144 Kbps | 2 ch | 44.1 KHz
Отчёт MediaInfo / BDInfo
General
Complete name : Enrique Iglesias feat Usher & Lil Wayne - Dirty Dancer [MasterRip 1080p].mp4
Format : MPEG-4
Format profile : Base Media
Codec ID : isom
File size : 375 MiB
Duration : 4mn 15s
Overall bit rate mode : Variable
Overall bit rate : 12.3 Mbps
Encoded date : UTC 2011-08-30 01:09:09
Tagged date : UTC 2011-08-30 01:09:09
Writing application : Lavf51.12.1
Video
ID : 1
Format : AVC
Format/Info : Advanced Video Codec
Format profile : Baseline@L4.0
Format settings, CABAC : No
Format settings, ReFrames : 1 frame
Format settings, GOP : M=1, N=12
Codec ID : avc1
Codec ID/Info : Advanced Video Coding
Duration : 4mn 15s
Bit rate mode : Variable
Bit rate : 12.1 Mbps
Maximum bit rate : 18.0 Mbps
Width : 1 920 pixels
Height : 1 080 pixels
Display aspect ratio : 16:9
Frame rate mode : Constant
Frame rate : 25.000 fps
Original frame rate : 24.000 fps
Color space : YUV
Chroma subsampling : 4:2:0
Bit depth : 8 bits
Scan type : Progressive
Bits/(Pixel*Frame) : 0.234
Stream size : 370 MiB (99%)
Encoded date : UTC 2011-08-30 01:09:09
Tagged date : UTC 2011-08-30 01:09:09
Audio
ID : 2
Format : AAC
Format/Info : Advanced Audio Codec
Format profile : LC
Codec ID : 40
Duration : 4mn 15s
Bit rate mode : Variable
Bit rate : 144 Kbps
Channel(s) : 2 channels
Channel positions : Front: L R
Sampling rate : 44.1 KHz
Compression mode : Lossy
Stream size : 4.42 MiB (1%)
Encoded date : UTC 2011-08-30 01:09:09
Tagged date : UTC 2011-08-30 01:09:09
Скриншоты
Download
Чтобы скачать .torrent файл необходима регистрация
Сайт не распространяет и не хранит электронные версии произведений, а лишь предоставляет доступ к создаваемому пользователями каталогу ссылок на торрент-файлы, которые содержат только списки хеш-сумм
[Профиль]  [ЛС] 
 
 
Ответить
Loading...
Error