Она не могла иначе / Серии: 1-8 из 8 (Александр Ефремов) [2013, Мелодрама, HDTVRip 720p]

Страницы:  1

Ответить
Автор
Сообщение

Серый1779

Top Seed 08* 5120r

Стаж: 8 лет 1 месяц

Сообщений: 7857

Серый1779 · 15-Янв-14 13:36 (4 года 5 месяцев назад, ред. 15-Янв-14 18:19)

Она не могла иначе
Год выпуска: 2013
Производство: ООО "Юникс"
Жанр: Мелодрама
Продолжительность: ~00:45:00 серия
Субтитры: нет
Режиссёр: Александр Ефремов
В ролях: Ольга Фадеева, Владислав Ветров, Сергей Астахов, Екатерина Вуличенко, Сергей Журавель, Игорь Подливальчев, Марина Денисова, Полина Стефанович, Светлана Боровская, Иван Щетко, Валентина Лосовская, Павел Южаков-Харланчук, Анна Каменкова, Владислав Шестак, Роман Подоляко, Борис Абаров, Анастасия Зубок, Дарья Бранкевич, Вероника Пляшкевич, Лариса Маршалова, Вячеслав Павлють, Александр Ткаченок, Светлана Никифорова, Елена Владомирская-Пастревич, Виталий Новиков (II), Сергей Новицкий, Татьяна Калих, Руслан Чернецкий

Описание: Талантливая певица Алевтина Толкачёва своё восхождение к большой сцене начинает будучи студенткой Института культуры. Именно в это время Аля знакомится с руководителем популярного джазового оркестра Юрием Шаульским...
Все раздачи сериала: Она не могла иначе

Качество: HDTVRip 720p [Рип с HDTV 1080i]
Формат: MKV
Видео кодек: H.264
Аудио кодек: AC3
Видео: MPEG4 Video (H264) 1280x720, ~ 4243 kbps, 25.00fps 0.184 bit/pixel
Аудио: AC3, 2 канала, 48,0 КГц, ~192 kbps, VBR
Сторонней рекламы нет!
MediaInfo
Общее
Уникальный идентификатор : 241649974553190508058868377835952979055 (0xB5CC179AC33BACB0874E29FC52F4BC6F)
Полное имя : F:\Она не могла иначе HDTVRip 720p\Она не могла иначе 01_серия_HDTVRip_720i.mkv
Формат : Matroska
Размер файла : 2,92 Гбайт
Продолжительность : 1 ч. 34 м.
Общий поток : 4437 Кбит/сек
Дата кодирования : UTC 2014-01-10 03:01:02
Программа кодирования : mkvmerge v6.1.0 ('Old Devil') built on Mar 4 2013 09:10:42
Библиотека кодирования : libebml v1.3.0 + libmatroska v1.4.0
Видео
Идентификатор : 1
Формат : AVC
Формат/Информация : Advanced Video Codec
Профиль формата : High@L4.1
Параметр CABAC формата : Да
Параметр ReFrames формата : 8 кадров
Идентификатор кодека : V_MPEG4/ISO/AVC
Продолжительность : 1 ч. 34 м.
Битрейт : 4243 Кбит/сек
Ширина : 1280 пикс.
Высота : 720 пикс.
Соотношение сторон : 16:9
Частота кадров : 25,000 кадр/сек
Цветовое пространство : YUV
Подвыборка цветности : 4:2:0
Битовая глубина : 8 бит
Тип развёртки : Прогрессивная
Бит/(Пиксели*Кадры) : 0.184
Размер потока : 2,73 Гбайт (94%)
Библиотека кодирования : x264 core 130 r2273 b3065e6
Настройки программы : cabac=1 / ref=8 / deblock=1:-3:-3 / analyse=0x3:0x133 / me=umh / subme=11 / psy=1 / psy_rd=1.00:0.20 / mixed_ref=1 / me_range=32 / chroma_me=1 / trellis=2 / 8x8dct=1 / cqm=0 / deadzone=21,11 / fast_pskip=0 / chroma_qp_offset=-3 / threads=12 / lookahead_threads=2 / sliced_threads=0 / nr=0 / decimate=0 / interlaced=0 / bluray_compat=0 / constrained_intra=0 / bframes=8 / b_pyramid=2 / b_adapt=2 / b_bias=0 / direct=3 / weightb=1 / open_gop=0 / weightp=2 / keyint=250 / keyint_min=25 / scenecut=40 / intra_refresh=0 / rc=2pass / mbtree=0 / bitrate=4243 / ratetol=1.0 / qcomp=0.60 / qpmin=0 / qpmax=69 / qpstep=4 / cplxblur=20.0 / qblur=0.5 / ip_ratio=1.40 / pb_ratio=1.30 / aq=1:1.00
Аудио
Идентификатор : 2
Формат : AC-3
Формат/Информация : Audio Coding 3
Расширение режима : CM (complete main)
Идентификатор кодека : A_AC3
Продолжительность : 1 ч. 34 м.
Вид битрейта : Постоянный
Битрейт : 192 Кбит/сек
Каналы : 2 канала
Расположение каналов : Front: L R
Частота : 48,0 КГц
Битовая глубина : 16 бит
Метод сжатия : С потерями
Размер потока : 129 Мбайт (4%)
Раздача группы:
Отдельное спасибо nikolspup за предоставление материала.
Внимание ! Раздача ведётся путём добавления новых серий
Внимание! Раздача ведётся путём добавления новых серий; при каждом добавлении создётся новый торрент. Чтобы начать докачку новой серии, пользователям необходимо сделать следующее:
(1) остановить скачивание,
(2) удалить старый торрент у себя из клиента (старые серии удалять не надо),
(3) скачать новый торрент и запустить его у себя в клиенте вместо старого, при этом указать клиенту путь в старую папку куда и должно происходить скачивание новых серий.
Ваш клиент при этом должен произвести хеширование (проверку) старой папки (если не производит сам - помогите ему сделать это), и будет докачивать только те серии которых у вас ещё нет. Старые серии при этом не удаляются, а продолжают раздаваться!
Eсли вы уже удалили старые серии, то предотвратить повторную закачку старых серий можно, отжав галочку в соответсвующих местах при запуске нового торрента. По возможности, желательно не удалять старые серии как можно дольше чтобы релизёр не столько продолжал раздавать старые серии, а смог сконцентрироваться на новых.
ВНИМАНИЕ! ТОРРЕНТ ПЕРЕЗАЛИТ! ДОБАВЛЕНА 8-ая СЕРИИ!
Скриншоты
Download
Чтобы скачать .torrent файл необходима регистрация
Сайт не распространяет и не хранит электронные версии произведений, а лишь предоставляет доступ к создаваемому пользователями каталогу ссылок на торрент-файлы, которые содержат только списки хеш-сумм
[Профиль]  [ЛС] 
 

kostik184

VIP (Заслуженный)

Стаж: 10 лет 9 месяцев

Сообщений: 2093

kostik184 · 15-Янв-14 18:50 (спустя 5 часов)

[Цитировать] 

Upskale
Критерии присвоения статусов # (сомнительно) и T (временная)
[Профиль]  [ЛС] 

dalens-leo

Стаж: 6 лет 10 месяцев

Сообщений: 73


dalens-leo · 23-Мар-14 18:11 (спустя 2 месяца 7 дней)

[Цитировать] 

Чудесный сериал. Долго не хотел смотреть его, как - то все не то вроде, мелодрама.... А посмотрев, и прослушав её песни, с этим необыкновенным восхитительным тембром голоса, присущем только русским певицам, пришёл в восторг. Всем рекомендую скачать и посмотреть, и послушать, и насладится увиденным и услышанным. С уважением !!!
[Профиль]  [ЛС] 

Parallax57

Стаж: 8 лет 6 месяцев

Сообщений: 49

Parallax57 · 08-Янв-15 12:49 (спустя 9 месяцев, ред. 08-Янв-15 22:05)

[Цитировать] 

Почему-то никто не раздаёт в хорошем качестве..., неделю не могу скачать.
[Профиль]  [ЛС] 

aktau90

Стаж: 8 лет 9 месяцев

Сообщений: 86


aktau90 · 20-Июл-15 18:10 (спустя 6 месяцев)

[Цитировать] 

Люди добрые встаньте на раздачу
[Профиль]  [ЛС] 

teodorus_yas

Стаж: 8 лет

Сообщений: 177


teodorus_yas · 04-Окт-15 14:00 (спустя 2 месяца 14 дней)

[Цитировать] 

Замечательная певица Толкунова... а фильм... неужели нельзя было, чтобы звучал голос самой Толкуновой?
Для чего опорофинили Кристалинскую? Плохая услуга памяти Толкуновой. 8 серий сентиментальных слюней... впрочем, есть очень неплохие куски... сократить бы раза в 3... А актриса неплохая.....
[Профиль]  [ЛС] 

Dunuashev

Стаж: 9 лет 9 месяцев

Сообщений: 36


Dunuashev · 13-Мар-18 23:50 (спустя 2 года 5 месяцев)

[Цитировать] 

Будете раздавать? Сидов 0
[Профиль]  [ЛС] 
 
Ответить
Loading...
Error