Адрес РуТрекера для пользователей РФ - 11.MainTracker.org

Расскажи друзьям:  

Серьезные отношения / Серии: 1-4 из 4 (Владимир Басов мл., Ольга Басова) [2013, Мелодрама, HDTVRip]

Страницы:  1

Ответить
Автор
Сообщение

Серый1779

Top Seed 07* 2560r

Стаж: 8 лет 8 месяцев

Сообщений: 7776

Серый1779 · 16-Фев-14 02:19 (4 года 11 месяцев назад, ред. 16-Фев-14 02:19)

Серьезные отношения
Год выпуска: 2013
Производство: Россия, Кинокомпания "Арт-Экспресс"
Жанр: Мелодрама
Продолжительность: ~0:45:00 серия
Субтитры: нет
Режиссёр: Владимир Басов мл., Ольга Басова
В ролях: Таисия Вилкова, Антон Хабаров, Юлия Майборода, Светлана Антонова, Даниил Белых, Денис Васильев, Елена Бирюкова, Владимир Стержаков
Описание: Семейная жизнь Игоря и Ирины кажется безоблачной. Игорь – преуспевающий бизнесмен, Ирина – известная переводчица. Хорошая квартира, семейные ужины, совместные поездки на отдых за границу. Но последнее время их отношения стали "всего лишь логичными". Перемены начались с появления Кати из Вознесенска. Она приехала в Москву ухаживать за своей больной бабушкой, но из-за недостатка средств ей приходится подрабатывать – презентовать дорогие пылесосы. Именно во время презентации и происходит знакомство с Ириной и Игорем.
Все раздачи сериала: Серьезные отношения

Качество: HDTVRip
Формат: AVI
Видео кодек:XviD
Аудио кодек:AC3
Видео: 720x400 (1.80:1), 25 fps, XviD MPEG-4 ~1895 kbps avg, 0.26 bit/pixel
Аудио: 48 kHz, AC3 Dolby Digital, 2/0 (L,R) ch, ~192 kbps
Сторонней рекламы нет!
MediaInfo
Общее
Полное имя : E:\Downloads\55\Серьезные отношения HDTVRip XviD\Серьезные отношения 01_серия_HDTVRip_XviD.avi
Формат : AVI
Формат/Информация : Audio Video Interleave
Размер файла : 676 Мбайт
Продолжительность : 45 м.
Общий поток : 2097 Кбит/сек
Библиотека кодирования : VirtualDub build 32507/release
Видео
Идентификатор : 0
Формат : MPEG-4 Visual
Профиль формата : Advanced [email protected]
Параметр BVOP формата : 2
Параметр QPel формата : Нет
Параметр GMC формата : Без точки перехода
Параметр матрицы формата : Default (H.263)
Режим смешивания : Сжатый битовый поток
Идентификатор кодека : XVID
Идентификатор кодека/Подсказка : XviD
Продолжительность : 45 м.
Битрейт : 1895 Кбит/сек
Ширина : 720 пикс.
Высота : 400 пикс.
Соотношение сторон : 16:9
Частота кадров : 25,000 кадр/сек
Цветовое пространство : YUV
Подвыборка цветности : 4:2:0
Битовая глубина : 8 бит
Тип развёртки : Прогрессивная
Метод сжатия : С потерями
Бит/(Пиксели*Кадры) : 0.263
Размер потока : 611 Мбайт (90%)
Библиотека кодирования : XviD 1.1.2 (UTC 2006-11-01)
Аудио
Идентификатор : 1
Формат : AC-3
Формат/Информация : Audio Coding 3
Расширение режима : CM (complete main)
Идентификатор кодека : 2000
Продолжительность : 45 м.
Вид битрейта : Постоянный
Битрейт : 192 Кбит/сек
Каналы : 2 канала
Расположение каналов : Front: L R
Частота : 48,0 КГц
Битовая глубина : 16 бит
Метод сжатия : С потерями
Размер потока : 61,9 Мбайт (9%)
Выравнивание : Соединение по промежуткам
Продолжительность промежутка : 40 мс. (1,00 видеокадр)
Время предзагрузки промежутка : 512 ms
Раздача группы:
Отдельное спасибо olegka7373 за предоставление материала.
Внимание ! Раздача ведётся путём добавления новых серий
Внимание! Раздача ведётся путём добавления новых серий; при каждом добавлении создётся новый торрент. Чтобы начать докачку новой серии, пользователям необходимо сделать следующее:
(1) остановить скачивание,
(2) удалить старый торрент у себя из клиента (старые серии удалять не надо),
(3) скачать новый торрент и запустить его у себя в клиенте вместо старого, при этом указать клиенту путь в старую папку куда и должно происходить скачивание новых серий.
Ваш клиент при этом должен произвести хеширование (проверку) старой папки (если не производит сам - помогите ему сделать это), и будет докачивать только те серии которых у вас ещё нет. Старые серии при этом не удаляются, а продолжают раздаваться!
Eсли вы уже удалили старые серии, то предотвратить повторную закачку старых серий можно, отжав галочку в соответсвующих местах при запуске нового торрента. По возможности, желательно не удалять старые серии как можно дольше чтобы релизёр не столько продолжал раздавать старые серии, а смог сконцентрироваться на новых.
ВНИМАНИЕ! ТОРРЕНТ ПЕРЕЗАЛИТ! ДОБАВЛЕНА 4-ая СЕРИИ!
Скриншоты
Download
Чтобы скачать .torrent файл необходима регистрация
Сайт не распространяет и не хранит электронные версии произведений, а лишь предоставляет доступ к создаваемому пользователями каталогу ссылок на торрент-файлы, которые содержат только списки хеш-сумм
[Профиль]  [ЛС] 
 

Polinkamalinina99

Стаж: 19 дней

Сообщений: 2


Polinkamalinina99 · 11-Янв-19 18:46 (спустя 4 года 10 месяцев)

[Цитировать] 

можно скачааать
[Профиль]  [ЛС] 
 
Ответить
Loading...
Error