Адрес РуТрекера для пользователей РФ - MainTracker.org

Расскажи друзьям:  

Beyonce - Life Is But a Dream (Live in Atlantic City) [2014, R&B, Pop, BDRip 720p]

Страницы:  1

Ответить
Автор
Сообщение

alexpavloff

Стаж: 9 лет 11 месяцев

Сообщений: 469

alexpavloff · 09-Мар-14 19:14 (4 года 2 месяца назад, ред. 10-Мар-14 01:29)

Beyonce - Life Is But a Dream [Live in Atlantic City]
Жанр: R&B, Pop
Продолжительность: 01:15:08
Год выпуска: 2014
Выпущено: Sony BMG Music Entertainment, Parkwood Entertainment
Режиссер: Эд Бурк, Бейонсе Ноулз, Илан Бенатар
В ролях: Бейонсе, Келли Роулэнд, Соланж Ноулз, Джей-Зи, Тина Ноулз, Мэттью Ноулз, Фрэнсис Мэнзо, Эшли Эверет, Донна Худ
Описание: 25 ноября 2013 года был выпущен на Blu-ray долгожданный для всех поклонников Бейонсе (Beyonce) фейерический концерт в Атлантик-Сити, который прошел 26 сентября 2012 года. Шоу, как и новая песня "God Made You Beautiful стали дополнением к документальному фильму певицы "Life Is But A Dream". Документального фильма в РИПе нет, только концерт в Атлантик-Сити, в котором она исполнила 21 песню...
Лицензия
Официальный сайт
Обложка
Качество: BDRip 720p
Контейнер: MKV
Видео кодек: H.264
Аудио кодек: DTS, AC3, AAC, FLAC
Видео: MPEG-4 AVC 4457 Kbps 1280*396 / 23,976 fps / High Profile 3.1
Аудио 1: DTS 5.1 / 48 kHz / 1510 kbps / 24-bit
Аудио 2: AC3 5.1 / 48 kHz / 448 kbps
Аудио 3: AAC-LC 2.0 / 48 kHz / 298 kbps
Аудио 4: FLAC 2.0 / 48 kHz / 1608 kbps / 24-bit
Главы: [+] подписаны названиями песен
Отчёт MediaInfo
General
Unique ID : 201610647736994181646551421597336429574 (0x97ACCC61374B87AB99546F761E2F6406)
Complete name : Beyonce_Life.Is.But.a.Dream-Live.in.Atlantic.City.2013.x264.BDRip.720p-HDLine.mkv
Format : Matroska
Format version : Version 2
File size : 4.37 GiB
Duration : 1h 15mn
Overall bit rate mode : Variable
Overall bit rate : 8 323 Kbps
Movie name : Beyonce - Live in Atlantic City 2013 [720p] DTS-AC3-AAC-FLAC
Encoded date : UTC 2014-03-09 15:41:39
Writing application : mkvmerge v6.8.0 ('Theme for Great Cities') 64bit built on Mar 2 2014 21:34:26
Writing library : libebml v1.3.0 + libmatroska v1.4.1
Attachment : Yes
Video
ID : 1
Format : AVC
Format/Info : Advanced Video Codec
Format profile : High@L3.1
Format settings, CABAC : Yes
Format settings, ReFrames : 11 frames
Codec ID : V_MPEG4/ISO/AVC
Duration : 1h 15mn
Nominal bit rate : 4 457 Kbps
Width : 1 280 pixels
Height : 396 pixels
Display aspect ratio : 3.242
Original display aspect ratio : 3.243
Frame rate mode : Constant
Frame rate : 23.976 fps
Color space : YUV
Chroma subsampling : 4:2:0
Bit depth : 8 bits
Scan type : Progressive
Bits/(Pixel*Frame) : 0.491
Title : Beyonce: Life Is But a Dream - Live in Atlantic City 2013
Writing library : x264 core 140 r2377kMod 1ca7bb9
Encoding settings : cabac=1 / ref=11 / deblock=1:0:0 / analyse=0x3:0x133 / me=umh / subme=10 / psy=1 / fade_compensate=0.00 / psy_rd=1.00:0.00 / mixed_ref=1 / me_range=24 / chroma_me=1 / trellis=2 / 8x8dct=1 / cqm=0 / deadzone=21,11 / fast_pskip=1 / chroma_qp_offset=-2 / threads=10 / lookahead_threads=1 / sliced_threads=0 / nr=0 / decimate=1 / interlaced=0 / bluray_compat=0 / constrained_intra=0 / fgo=0 / bframes=8 / b_pyramid=2 / b_adapt=2 / b_bias=0 / direct=3 / weightb=1 / open_gop=0 / weightp=2 / keyint=240 / keyint_min=25 / scenecut=40 / intra_refresh=0 / rc_lookahead=60 / rc=2pass / mbtree=1 / bitrate=4457 / ratetol=1.0 / qcomp=0.60 / qpmin=0 / qpmax=69 / qpstep=4 / cplxblur=20.0 / qblur=0.5 / ip_ratio=1.40 / aq=1:1.00
Language : English
Default : Yes
Forced : No
Audio #1
ID : 2
Format : DTS
Format/Info : Digital Theater Systems
Mode : 16
Format settings, Endianness : Big
Codec ID : A_DTS
Duration : 1h 15mn
Bit rate mode : Constant
Bit rate : 1 510 Kbps
Channel(s) : 6 channels
Channel positions : Front: L C R, Side: L R, LFE
Sampling rate : 48.0 KHz
Bit depth : 24 bits
Compression mode : Lossy
Stream size : 812 MiB (18%)
Title : DTS 5.1 48KHz@1510kbps (24-bit)
Language : English
Default : Yes
Forced : No
Audio #2
ID : 3
Format : AC-3
Format/Info : Audio Coding 3
Mode extension : CM (complete main)
Format settings, Endianness : Big
Codec ID : A_AC3
Duration : 1h 15mn
Bit rate mode : Constant
Bit rate : 448 Kbps
Channel(s) : 6 channels
Channel positions : Front: L C R, Side: L R, LFE
Sampling rate : 48.0 KHz
Bit depth : 16 bits
Compression mode : Lossy
Stream size : 241 MiB (5%)
Title : AC3 5.1 48KHz@448kbps
Language : English
Default : No
Forced : No
Audio #3
ID : 4
Format : AAC
Format/Info : Advanced Audio Codec
Format profile : LC
Codec ID : A_AAC
Duration : 1h 15mn
Bit rate mode : Variable
Bit rate : 298 Kbps
Maximum bit rate : 361 Kbps
Channel(s) : 2 channels
Channel positions : Front: L R
Sampling rate : 48.0 KHz
Compression mode : Lossy
Delay relative to video : 20ms
Title : AAC-LC 2.0 48KHz@298kbps
Language : English
Default : No
Forced : No
Audio #4
ID : 5
Format : FLAC
Format/Info : Free Lossless Audio Codec
Codec ID : A_FLAC
Duration : 1h 15mn
Bit rate mode : Variable
Bit rate : 1 608 Kbps
Channel(s) : 2 channels
Sampling rate : 48.0 KHz
Bit depth : 24 bits
Title : FAAC 2.0 48KHz@1608kbps (24-bit)
Writing library : libFLAC 1.2.1 (UTC 2007-09-17)
Language : English
Default : No
Forced : No
Menu
00:00:00.000 : en:01. End of Time
00:05:53.436 : en:02. Get Me Bodied
00:07:20.314 : en:03. Baby Boy
00:10:05.021 : en:04. Crazy in Love
00:13:15.211 : en:05. Diva
00:16:04.004 : en:06. Naughty Girl
00:20:55.420 : en:07. Party
00:24:16.079 : en:08. Dance For You
00:27:53.505 : en:09. Freakum Dress
00:30:45.260 : en:10. I Care
00:35:14.112 : en:11. Schoolin' Life
00:38:11.288 : en:12. 1 + 1
00:45:26.348 : en:13. Flaws and All
00:50:33.488 : en:14. Countdown
00:51:21.328 : en:15. Run the World (Girls)
00:54:38.274 : en:16. I Was Here
00:56:40.438 : en:17. I Will Always Love You
00:58:28.505 : en:18. Halo
01:05:20.291 : en:19. Single Ladies
01:10:04.158 : en:20. Green Light
01:12:37.353 : en:21. Love on Top
Скриншоты
Download
Чтобы скачать .torrent файл необходима регистрация
Сайт не распространяет и не хранит электронные версии произведений, а лишь предоставляет доступ к создаваемому пользователями каталогу ссылок на торрент-файлы, которые содержат только списки хеш-сумм
[Профиль]  [ЛС] 
 

alexpavloff

Стаж: 9 лет 11 месяцев

Сообщений: 469

alexpavloff · 10-Мар-14 01:30 (спустя 6 часов)

[Цитировать] 

Торрент-файл обновлен - был неправильный AR...
Просьба перекачать файл заново!!! Извиняюсь за неудобство!!!
[Профиль]  [ЛС] 

Дина-style

Стаж: 9 лет 1 месяц

Сообщений: 62

Дина-style · 10-Мар-14 15:07 (спустя 13 часов)

[Цитировать] 

Это ее последний мировой тур?
[Профиль]  [ЛС] 

Ton-ik

Top Bonus 03* 1TB

Стаж: 9 лет 5 месяцев

Сообщений: 1276

Ton-ik · 12-Мар-14 10:58 (спустя 1 день 19 часов)

[Цитировать] 

А что за пропорции такие?
Width : 1 280 pixels
Height : 396 pixels
[Профиль]  [ЛС] 

Sergious27

Стаж: 8 лет 5 месяцев

Сообщений: 19


Sergious27 · 12-Мар-14 21:24 (спустя 10 часов)

[Цитировать] 

а это горе-креативщики видимо уже на блюрее сделали мега широкоформатное видео обрезав верх и низ...
[Профиль]  [ЛС] 

CrazyInLove

Стаж: 7 лет 6 месяцев

Сообщений: 22


CrazyInLove · 25-Мар-14 22:56 (спустя 13 дней)

[Цитировать] 

Дина-style
Это не тур,последний мировой тур,который есть на DVD - <I..AM WORLD TOUR>
Здесь просто концерт,который она давала в МАЕ (а не в сентябре,как написано в описании) было 4 концерта , первые концерты после родов,она родила в январе и в мае уже концерты. Если вы хотите посмотреть её новый тур Mrs. Carter Show World Tour то есть пока только в хорошем качестве концерт на фестивале Rock In Rio но там она выступала со старыми песнями,а не с песнями нового альбома
[Профиль]  [ЛС] 

bambass

Стаж: 9 лет 11 месяцев

Сообщений: 92


bambass · 01-Апр-14 13:41 (спустя 6 дней)

[Цитировать] 

MediaInfo левое - в фале 9 фреймов, а не 11...!!!
[Профиль]  [ЛС] 
 
Ответить
Loading...
Error