Адрес РуТрекера для пользователей РФ - MainTracker.org

Расскажи друзьям:  

Дорогой мой человек / Серии: 1-16 из 16 (Егор Абросимов) [2011, Экранизация, драма, мелодрама, ВОВ, WEBRip 720p]

Страницы:  1

Ответить
Автор
Сообщение

Серый1779

Top Seed 07* 2560r

Стаж: 8 лет 4 месяца

Сообщений: 7851

Серый1779 · 19-Апр-14 20:45 (4 года 5 месяцев назад, ред. 20-Апр-14 10:25)

Дорогой мой человек
Год выпуска: 2011
Производство: Россия, Форвард-фильм, Студия Панорама
Жанр: Экранизация, драма, мелодрама, ВОВ
Продолжительность: ~00:43:00
Субтитры: нет
Режиссёр: Егор Абросимов
В ролях: Эмилия Спивак, Лия Ахеджакова, Семён Лебин, Юлия Шубарева, Ирина Розанова, Александр Блок, Лев Борисов, Юрий Ицков, Александр Чередник, Татьяна Бондаренко, Владимир Матвеев, Яков Кучеревский, Галина Польских, Дмитрий Мухамадеев, Александр Устюгов, Леонид Мозговой, Андрей Абрамов, Артём Цыпин, Михаил Терентьев, Ким Дружинин, Сергей Яценюк, Лариса Логинова, Дмитрий Лунев, Андрей Белоцерковский, Семён Белоцерковский, Витас Эйзенах, Анна Жукова, Евгений Катаев, Дмитрий Смородский, Вячеслав Захаров, Алексей Назаров, Мария Иванова, Анна Хижняк, Сергей Фёдоров, Василий Гузов, Кристина Бродская, Ольга Агеева, Александр Русинов, Вадим Лымарь, Юлия Морозова

Описание: рач Владимир Устименко — человек долга и чести, предан делу, которому служит, и предан одной-единственной любви, которую проносит через всю жизнь: любви к Варе Степановой, взбалмошной девчонке, мечтающей стать великой актрисой, но ставшей геологом. Война жестоко вмешается в судьбы героев и еще больше напутает в их, и без того хрупких, отношениях. После долгой и неожиданной разлуки герои впервые встретятся во фронтовом госпитале, где военврач Устименко будет оперировать не приходящую в сознание «трудную» пациентку — Варю Степанову…
Все раздачи сериала: Дорогой мой человек

Качество: WEBRip 720p
Формат: MKV
Видео кодек: H.264
Аудио кодек: AC-3
Видео: x264, 1280 х 720 (16:9), 25,000 кадр/сек, ~ 2500 kbps, 0.109 bit/pixel
Аудио: AC-3, 48000 Hz, ~192 Kbps, 2 канала
Сторонней рекламы нет!
MediaInfo
Общее
Уникальный идентификатор : 199260713385987041964006910268426524822 (0x95E837ABC9560AE8AE4A0ED61E0D9896)
Полное имя : F:\Дорогой мой человек WEBRip 720p\Дорогой мой человек 01_серия_WEBRip_720p.mkv
Формат : Matroska
Размер файла : 863 Мбайт
Продолжительность : 44 м.
Общий поток : 2685 Кбит/сек
Название фильма : Dorogoy.moy.chelovek.(01.seriya.iz.16).2011.WEB-DL.(720p).MediaClub
Дата кодирования : UTC 2014-04-19 09:55:21
Программа кодирования : mkvmerge v6.3.0 ('You can't stop me!') built on Jun 28 2013 20:09:41
Библиотека кодирования : libebml v1.3.0 + libmatroska v1.4.0
Видео
Идентификатор : 1
Формат : AVC
Формат/Информация : Advanced Video Codec
Профиль формата : High@L4.0
Параметр CABAC формата : Да
Параметр ReFrames формата : 3 кадра
Идентификатор кодека : V_MPEG4/ISO/AVC
Продолжительность : 44 м.
Битрейт : 2500 Кбит/сек
Ширина : 1280 пикс.
Высота : 720 пикс.
Соотношение сторон : 16:9
Режим частоты кадров : Переменный
Частота кадров : 25,000 кадр/сек
Цветовое пространство : YUV
Подвыборка цветности : 4:2:0
Битовая глубина : 8 бит
Тип развёртки : Прогрессивная
Бит/(Пиксели*Кадры) : 0.109
Размер потока : 784 Мбайт (91%)
Библиотека кодирования : x264 core 133
Настройки программы : cabac=1 / ref=4 / deblock=1:0:0 / analyse=0x3:0x133 / me=umh / subme=9 / psy=1 / psy_rd=1.00:0.00 / mixed_ref=1 / me_range=24 / chroma_me=1 / trellis=2 / 8x8dct=1 / cqm=0 / deadzone=21,11 / fast_pskip=1 / chroma_qp_offset=-2 / threads=2 / lookahead_threads=1 / sliced_threads=0 / nr=0 / decimate=1 / interlaced=0 / bluray_compat=0 / constrained_intra=0 / bframes=9 / b_pyramid=1 / b_adapt=2 / b_bias=0 / direct=3 / weightb=1 / open_gop=0 / weightp=2 / keyint=100 / keyint_min=10 / scenecut=40 / intra_refresh=0 / rc_lookahead=100 / rc=2pass / mbtree=1 / bitrate=2500 / ratetol=1.0 / qcomp=0.60 / qpmin=0 / qpmax=69 / qpstep=4 / cplxblur=20.0 / qblur=0.5 / vbv_maxrate=3250 / vbv_bufsize=3750 / nal_hrd=none / ip_ratio=1.40 / aq=1:1.00
Аудио
Идентификатор : 2
Формат : AC-3
Формат/Информация : Audio Coding 3
Расширение режима : CM (complete main)
Идентификатор кодека : A_AC3
Продолжительность : 44 м.
Вид битрейта : Постоянный
Битрейт : 192 Кбит/сек
Каналы : 2 канала
Расположение каналов : Front: L R
Частота : 48,0 КГц
Битовая глубина : 16 бит
Метод сжатия : С потерями
Задержка видео : -21 мс.
Размер потока : 61,7 Мбайт (7%)
Язык : Russian
Раздача группы:
Отдельное спасибо nikolspup за предоставление материала.
Внимание ! Раздача ведётся путём добавления новых серий
Внимание! Раздача ведётся путём добавления новых серий; при каждом добавлении создётся новый торрент. Чтобы начать докачку новой серии, пользователям необходимо сделать следующее:
(1) остановить скачивание,
(2) удалить старый торрент у себя из клиента (старые серии удалять не надо),
(3) скачать новый торрент и запустить его у себя в клиенте вместо старого, при этом указать клиенту путь в старую папку куда и должно происходить скачивание новых серий.
Ваш клиент при этом должен произвести хеширование (проверку) старой папки (если не производит сам - помогите ему сделать это), и будет докачивать только те серии которых у вас ещё нет. Старые серии при этом не удаляются, а продолжают раздаваться!
Eсли вы уже удалили старые серии, то предотвратить повторную закачку старых серий можно, отжав галочку в соответсвующих местах при запуске нового торрента. По возможности, желательно не удалять старые серии как можно дольше чтобы релизёр не столько продолжал раздавать старые серии, а смог сконцентрироваться на новых.
ВНИМАНИЕ! ТОРРЕНТ ПЕРЕЗАЛИТ! ДОБАВЛЕНА 16-ая СЕРИЯ!
Скриншоты
Download
Чтобы скачать .torrent файл необходима регистрация
Сайт не распространяет и не хранит электронные версии произведений, а лишь предоставляет доступ к создаваемому пользователями каталогу ссылок на торрент-файлы, которые содержат только списки хеш-сумм
[Профиль]  [ЛС] 
 

Fukaeri

Стаж: 3 года

Сообщений: 286

Fukaeri · 10-Июл-18 17:43 (спустя 4 года 2 месяца, ред. 14-Июл-18 02:43)

[Цитировать] 

М-даа... Претензия явно была снять вторые "Дети Арбата", но: а) режиссер Е. Абросимов оказался никакой, стандартный профи без полёта творческой мысли - и б) сам литературный первоисточник тот ещё с точки зрения качества, если судить его по ГАМБУРГСКОМУ СЧЁТУ Напомню, эта трилогия Ю. Германа есть типичное литературное произведение эпохи позднего соцреализма, творение неоднократно обласканного Сталиным члена "Союза писателей СССР". Оно хоть и с "прогрессивными" тенденциями, навеянными "разоблачением культа личности", но - полное недомолвок, осторожных перестраховок, наконец, подспудного официального "советского патриотизма". ВОТ УЖ ЧЕГО СОВЕРШЕННО НЕ БЫЛО В "ДЕТЯХ АРБАТА" --- Окультурить такой текст можно было, конечно, но только переписав его практически заново, создав новый сценарий на его основе. Однако это сделано не было, и результат, в сочетании со средненькой режиссурой - вот он, налицо! Анемичная киномелодрама в исторических декорациях, которая забывается сразу же после просмотра... Печальки...
[Профиль]  [ЛС] 
 
Ответить
Loading...
Error