Адрес РуТрекера для пользователей РФ - 11.MainTracker.org

Расскажи друзьям:  

Тайный город / Серии: 1-8 из 8 (Александр Мохов) [2014, Россия, фэнтези, 2xDVD9]

Страницы:  1

Ответить
Автор
Сообщение

vlaa8

RG Torrents.Ru

Стаж: 10 лет 1 месяц

Сообщений: 1820

vlaa8 · 12-Июн-14 00:07 (5 лет назад, ред. 12-Июн-14 11:38)


Тайный город
Год выпуска: 2014
Страна: Россия
Производство: Студия ТГ, Телекомпания РЕН ТВ
Жанр: фэнтези
Продолжительность: 392 мин.
Субтитры: нет
Режиссер: Александр Мохов
В ролях: Павел Прилучный, Игорь Жижикин, Александра Флоринская, Елена Ташаева, Александр Мохов, Илья Исаев, Юлия Такшина, Михаил Горевой, Михаил Полицеймако, Сергей Бадюк
Описание: Ведьмы, оборотни… Наши предки преследовали их и беспощадно уничтожали. Но потомки этих исчезнувших цивилизаций и сейчас обитают в магическом Тайном городе, который много тысяч лет существует на территории Москвы и сокрыт от глаз обычных людей защитными чарами. Но некоторым все же удастся в него заглянуть, и даже — освоиться в Тайном Городе.
Бонусы: нет

Релиз группы:
Все раздачи сериала
Качество: 2xDVD9 R5
Формат: DVD-Video
Видео кодек: MPEG2
Аудио кодек: AC3
Видео: PAL 16:9 (720x576(0.507)) MPEG Video, 25,000 кадр/сек, 5259 Кбит/сек
Аудио: Russian (Dolby AC3, 2 ch) 256 Кбит/сек, 48,0 КГц


DVDInfo DVD1
Title: DVD1
Size: 7.66 Gb ( 8 029 910,00 KBytes ) - DVD-9
Enabled regions: 1, 2, 3, 4, 5, 6, 7, 8
VTS_01 :
Play Length: 00:00:25+{00:00:25}+{00:00:25}
Video: PAL 4:3 (720x576) VBR
Audio:
Russian (Dolby AC3, 6 ch)
English (Dolby AC3, 6 ch)
English (Dolby AC3, 6 ch)
VTS_02 :
Play Length: 00:48:25
Video: PAL 16:9 (720x576) VBR, Auto Pan&Scan, Auto Letterboxed
Audio:
Russian (Dolby AC3, 2 ch)
VTS_03 :
Play Length: 00:48:05
Video: PAL 16:9 (720x576) VBR, Auto Pan&Scan, Auto Letterboxed
Audio:
Russian (Dolby AC3, 2 ch)
VTS_04 :
Play Length: 00:48:03
Video: PAL 16:9 (720x576) VBR, Auto Pan&Scan, Auto Letterboxed
Audio:
Russian (Dolby AC3, 2 ch)
VTS_05 :
Play Length: 00:48:13
Video: PAL 16:9 (720x576) VBR, Auto Pan&Scan, Auto Letterboxed
Audio:
Russian (Dolby AC3, 2 ch)
* Menus Information *
VIDEO_TS Menu
Video:
PAL 16:9 (720x576) VBR
Auto Pan&Scan, Auto Letterboxed
English Language Unit :
Title Menu
VTS_01 Menu
Video:
PAL 16:9 (720x576) VBR
Auto Letterboxed
Audio:
Not specified (Dolby AC3, 2 ch)
English Language Unit :
Root Menu
Chapter (PTT) Menu
VTS_02 Menu
Video:
PAL 4:3 (720x576) VBR
English Language Unit :
Root Menu
Chapter (PTT) Menu
VTS_03 Menu
Video:
PAL 4:3 (720x576) VBR
English Language Unit :
Root Menu
Chapter (PTT) Menu
VTS_04 Menu
Video:
PAL 4:3 (720x576) VBR
English Language Unit :
Root Menu
Chapter (PTT) Menu
VTS_05 Menu
Video:
PAL 4:3 (720x576) VBR
English Language Unit :
Root Menu
Chapter (PTT) Menu
DVDInfo DVD2
Title: DVD2
Size: 7.63 Gb ( 8 004 064,00 KBytes ) - DVD-9
Enabled regions: 1, 2, 3, 4, 5, 6, 7, 8
VTS_01 :
Play Length: 00:00:25+{00:00:25}+{00:00:25}
Video: PAL 4:3 (720x576) VBR
Audio:
Russian (Dolby AC3, 6 ch)
English (Dolby AC3, 6 ch)
English (Dolby AC3, 6 ch)
VTS_02 :
Play Length: 00:48:02
Video: PAL 16:9 (720x576) VBR, Auto Pan&Scan, Auto Letterboxed
Audio:
Russian (Dolby AC3, 2 ch)
VTS_03 :
Play Length: 00:48:03
Video: PAL 16:9 (720x576) VBR, Auto Pan&Scan, Auto Letterboxed
Audio:
Russian (Dolby AC3, 2 ch)
VTS_04 :
Play Length: 00:48:03
Video: PAL 16:9 (720x576) VBR, Auto Pan&Scan, Auto Letterboxed
Audio:
Russian (Dolby AC3, 2 ch)
VTS_05 :
Play Length: 00:48:02
Video: PAL 16:9 (720x576) VBR, Auto Pan&Scan, Auto Letterboxed
Audio:
Russian (Dolby AC3, 2 ch)
* Menus Information *
VIDEO_TS Menu
Video:
PAL 16:9 (720x576) VBR
Auto Pan&Scan, Auto Letterboxed
English Language Unit :
Title Menu
VTS_01 Menu
Video:
PAL 16:9 (720x576) VBR
Auto Letterboxed
Audio:
Not specified (Dolby AC3, 2 ch)
English Language Unit :
Root Menu
Chapter (PTT) Menu
VTS_02 Menu
Video:
PAL 4:3 (720x576) VBR
English Language Unit :
Root Menu
Chapter (PTT) Menu
VTS_03 Menu
Video:
PAL 4:3 (720x576) VBR
English Language Unit :
Root Menu
Chapter (PTT) Menu
VTS_04 Menu
Video:
PAL 4:3 (720x576) VBR
English Language Unit :
Root Menu
Chapter (PTT) Menu
VTS_05 Menu
Video:
PAL 4:3 (720x576) VBR
English Language Unit :
Root Menu
Chapter (PTT) Menu
MediaInfo
Общее
Полное имя : D:\Новинки 2014\Tajnyj.gorod.2014.2хDVD9\DVD1\VIDEO_TS\VTS_03_1.VOB
Формат : MPEG-PS
Размер файла : 1024 Мбайт
Продолжительность : 25 м.
Режим общего битрейта : Переменный
Общий поток : 5627 Кбит/сек
Видео
Идентификатор : 224 (0xE0)
Формат : MPEG Video
Версия формата : Version 2
Профиль формата : [email protected]
Параметр BVOP формата : Да
Параметр матрицы формата : По умолчанию
Параметр GOP формата : M=3, N=12
Продолжительность : 25 м.
Вид битрейта : Переменный
Битрейт : 5259 Кбит/сек
Максимальный битрейт : 8400 Кбит/сек
Ширина : 720 пикселей
Высота : 576 пикселей
Соотношение сторон : 16:9
Частота кадров : 25,000 кадров/сек
Стандарт вещания : PAL
Цветовое пространство : YUV
Субдискретизация насыщенности : 4:2:0
Битовая глубина : 8 бит
Тип развёртки : Прогрессивная
Метод сжатия : С потерями
Бит/(Пиксели*Кадры) : 0.507
Временной код первого кадра : 00:00:00:00
Оригинал временного кода : Group of pictures header
Размер потока : 957 Мбайт (93%)
Аудио
Идентификатор : 189 (0xBD)-128 (0x80)
Формат : AC-3
Формат/Информация : Audio Coding 3
Расширение режима : CM (complete main)
Параметр Endianness формата : Big
Режим смешивания : DVD-Video
Продолжительность : 25 м.
Вид битрейта : Постоянный
Битрейт : 256 Кбит/сек
Каналы : 2 канала
Расположение каналов : Front: L R
Частота : 48,0 КГц
Битовая глубина : 16 бит
Метод сжатия : С потерями
Задержка видео : -80 мс.
Размер потока : 46,6 Мбайт (5%)
Скриншоты меню
Скриншоты сериала



Раздача от группы:
Download
Чтобы скачать .torrent файл необходима регистрация
Сайт не распространяет и не хранит электронные версии произведений, а лишь предоставляет доступ к создаваемому пользователями каталогу ссылок на торрент-файлы, которые содержат только списки хеш-сумм
[Профиль]  [ЛС] 
 

Ancient777

Стаж: 8 лет 11 месяцев

Сообщений: 4


Ancient777 · 01-Авг-14 12:31 (спустя 1 месяц 19 дней)

слабоват сериал, актеры не очень хорошие подобраны. Первые книги интересные, а потом начинают утомлять тем, что каждый новый враг Тайного города круче предыдущего.
[Профиль]  [ЛС] 

ramblr8

Стаж: 9 лет 3 месяца

Сообщений: 141

ramblr8 · 13-Авг-14 16:57 (спустя 12 дней, ред. 13-Авг-14 16:57)

Гордым владельцам DVD-плееров посвящается...
Разделяющим мое отношение к этому неподыхающему формату, предлагаю скачать качественный рип на rutor - не HD, но почти:
Видео: [email protected] (16:9), 25.000 fps, MPEG-4 AVC ~ 1808 kbps avg, 0.174 bit/pixel.
Размер 5.38 GB.
[Профиль]  [ЛС] 

Стрелок_11

Стаж: 8 лет 1 месяц

Сообщений: 7


Стрелок_11 · 20-Авг-14 23:10 (спустя 7 дней)

Посмотрел первые 2 серии. Можно простить корявые спецэффекты, рваный сюжет. Но игра актеров... Режиссеру гореть в аду! Такую книгу портит!
[Профиль]  [ЛС] 

Sigurd_VRN

Стаж: 9 лет 4 месяца

Сообщений: 28


Sigurd_VRN · 28-Сен-14 08:14 (спустя 1 месяц 7 дней)

случайно увидел в Тель-Авизоре.
сразу попер искать
спасибо
[Профиль]  [ЛС] 

Bellouglas

Стаж: 4 года 8 месяцев

Сообщений: 42

Bellouglas · 12-Янв-19 00:04 (спустя 4 года 3 месяца)

Посмотрел сие "творение" и понял, что с книгами Вадима Панова у него общее только название. Это не фильм, а откровенная халтура! Сюжет переврали полностью. От главных героев остались только одни имена и фамилии. У меня создалось такое впечатление что режиссер, этим фильмом, хотел доказать, что он умнее автора книги. Только вот кому он пытается это доказать? Зрителю... или себе???
[Профиль]  [ЛС] 
 
Ответить
Loading...
Error