Адрес РуТрекера для пользователей РФ - MainTracker.org

Расскажи друзьям:  

Польская невеста / De Poolse Bruid / The Polish Bride (Карим Траидиа / Karim Traidia) [1998, Нидерланды, драма, мелодрама, DVDRip] VO (lehachuev)

Страницы:  1

Ответить
Автор
Сообщение

max1wq

Top Seed 05* 640r

Стаж: 8 лет 5 месяцев

Сообщений: 1531

max1wq · 20-Июл-14 21:29 (3 года 10 месяцев назад)

Польская невеста / De Poolse Bruid / The Polish Bride
Страна: Нидерланды
Жанр: драма, мелодрама
Год выпуска: 1998
Продолжительность: 01:25:35
Перевод: Одноголосый закадровый lehachuev
Субтитры: нет
Режиссер: Карим Траидиа /Karim Traidia
В ролях: Яап Спийкерс, Моник Хендрикс, Руди Фалькенхаген, Роэф Рагас, Хаким Траидиа
Описание: Фильм повествует о трудной судьбе молодой польской женщины, которая обманным путем была привезена в Нидерланды торговцами «живым товаром» и оказалась в одном из борделей в Гронингене. Ей удалось вырваться из рук сутенеров и бежать. Судьба свела ее с голландским фермером, который дал ей у себя приют.

Сэмпл: http://multi-up.com/987736
Качество видео: DVDRip - Исходник
Формат видео: AVI
Видео:560x416 (1.35:1), 25 fps, XviD, 1079 kbps, 0.19 bit/pixel
Аудио: 48 kHz, MPEG Layer 3, 2 ch, 128.00 kbps, VO (lehachuev)
MediaInfo
General
Complete name : E:\Раздачи\rutracker.org\Pol'skaja_nevesta_745_by_max1wq.avi
Format : AVI
Format/Info : Audio Video Interleave
File size : 745 MiB
Duration : 1h 25mn
Overall bit rate : 1 217 Kbps
Writing application : VirtualDubMod 1.5.10.2 (build 2540/release)
Writing library : VirtualDubMod build 2540/release
Video
ID : 0
Format : MPEG-4 Visual
Format profile : Advanced Simple@L5
Format settings, BVOP : 1
Format settings, QPel : No
Format settings, GMC : No warppoints
Format settings, Matrix : Default (MPEG)
Codec ID : XVID
Codec ID/Hint : XviD
Duration : 1h 25mn
Bit rate : 1 080 Kbps
Width : 560 pixels
Height : 416 pixels
Display aspect ratio : 4:3
Frame rate : 25.000 fps
Color space : YUV
Chroma subsampling : 4:2:0
Bit depth : 8 bits
Scan type : Progressive
Compression mode : Lossy
Bits/(Pixel*Frame) : 0.185
Stream size : 661 MiB (89%)
Writing library : XviD 65
Audio
ID : 1
Format : MPEG Audio
Format version : Version 1
Format profile : Layer 3
Mode : Joint stereo
Mode extension : MS Stereo
Codec ID : 55
Codec ID/Hint : MP3
Duration : 1h 25mn
Bit rate mode : Constant
Bit rate : 128 Kbps
Channel(s) : 2 channels
Sampling rate : 48.0 KHz
Compression mode : Lossy
Stream size : 78.4 MiB (11%)
Alignment : Aligned on interleaves
Interleave, duration : 40 ms (1.00 video frame)
Interleave, preload duration : 504 ms
Download
Чтобы скачать .torrent файл необходима регистрация
Сайт не распространяет и не хранит электронные версии произведений, а лишь предоставляет доступ к создаваемому пользователями каталогу ссылок на торрент-файлы, которые содержат только списки хеш-сумм
[Профиль]  [ЛС] 
 
 
Ответить
Loading...
Error