Адрес РуТрекера для пользователей РФ - MainTracker.org

Расскажи друзьям:  

Земский доктор. Любовь вопреки / Сезон: 5 / Серии: 1-20 из 20 (Александр Павловский) [2014, Россия, Мелодрама, HDTVRip]

Страницы:  1

Ответить
Автор
Сообщение

drakula05

RG Русские сериалы

Стаж: 10 лет 5 месяцев

Сообщений: 645

drakula05 · 22-Сен-14 16:57 (3 года 7 месяцев назад, ред. 03-Окт-14 01:45)

Земский доктор. Любовь вопреки

Производитель : Россия, Эс Эф Продакшн
Жанр: Мелодрама
Год выпуска: 2014
Продолжительность: 50 мин.
Субтитры: нет
Режиссер: Александр Павловский
В ролях: Ольга Будина, Ирина Купченко, Татьяна Васильева, Луиза-Габриэла Бровина, Борис Клюев, Александр Лазарев мл., Светлана Немоляева, Нина Усатова, Людмила Гаврилова, Людмила Полякова, Татьяна Лютаева, Кристина Бабушкина, Наталия Житкова, Александр Сергеев (IV), Галина Володина, Лариса Маркина, Владимир Чуприков, Татьяна Исаева (III), Андрей Истоков, Таисия Шипилова, Владимир Малков, Ирина Фролова, Мариэтта Цигаль-Полищук
Описание: Пятый сезон популярного сериала "Земский доктор". Мелодраматическая история жизни и личных отношений женщины-врача, пережившей личную трагедию и уехавшей в небольшой городок, став земским доктором.
Доп. информация: Релиз группа
[url=tracker.php?nm=Земский доктор Любовь вопреки]Все раздачи сериала[/url]
[url=http:// СПАМ [/url]
Качество: HDTVRip
Формат: AVI
Видео кодек: XviD
Аудио кодек: AC3
Видео: 720x400 (1.80:1), 25 fps, XviD build 50 ~1548 kbps avg, 0.22 bit/pixel
Аудио: 48 kHz, AC3 Dolby Digital, 2/0 (L,R) ch, ~192.00 kbps avg
MI
General
Complete name : Z:\раздачи\Zemskiy.doktor.5.Lyubov.vopreki.2014.HDTVRip.RG.Russkie.serialy.&.Files-x\Zemskiy.doktor.5.Lyubov.vopreki.01.seriya.2014.HDTVRip.RG.Russkie.serialy.&.Files-x.avi
Format : AVI
Format/Info : Audio Video Interleave
File size : 550 MiB
Duration : 42mn 34s
Overall bit rate : 1 805 Kbps
Writing application : VirtualDubMod 1.5.10.3 | www.virtualdub-fr.org || (build 2550/release)
Writing library : VirtualDubMod build 2550/release
Video
ID : 0
Format : MPEG-4 Visual
Format profile : Advanced Simple@L5
Format settings, BVOP : Yes
Format settings, QPel : No
Format settings, GMC : No warppoints
Format settings, Matrix : Default (H.263)
Codec ID : XVID
Codec ID/Hint : XviD
Duration : 42mn 34s
Bit rate : 1 603 Kbps
Width : 720 pixels
Height : 400 pixels
Display aspect ratio : 16:9
Frame rate : 25.000 fps
Color space : YUV
Chroma subsampling : 4:2:0
Bit depth : 8 bits
Scan type : Progressive
Compression mode : Lossy
Bits/(Pixel*Frame) : 0.223
Stream size : 488 MiB (89%)
Writing library : XviD 1.2.1 (UTC 2008-12-04)
Audio
ID : 1
Format : AC-3
Format/Info : Audio Coding 3
Mode extension : CM (complete main)
Format settings, Endianness : Big
Codec ID : 2000
Duration : 42mn 34s
Bit rate mode : Constant
Bit rate : 192 Kbps
Channel(s) : 2 channels
Channel positions : Front: L R
Sampling rate : 48.0 KHz
Bit depth : 16 bits
Compression mode : Lossy
Stream size : 58.5 MiB (11%)
Alignment : Split accross interleaves
Interleave, duration : 40 ms (1.00 video frame)
Interleave, preload duration : 500 ms
Внимание! Раздача ведётся путём добавления новых серий!
Внимание! Раздача ведётся путём добавления новых серий
Внимание! Раздача ведётся путём добавления новых серий; при каждом добавлении создётся новый торрент.
Чтобы начать докачку новой серии, пользователям необходимо сделать следующее:
1) остановить скачивание
2) удалить старый торрент у себя из клиента (старые серии удалять не надо)
3) скачать новый торрент и запустить его у себя в клиенте вместо старого, при этом указать клиенту путь в старую папку куда и должно происходить скачивание новых серий.
Ваш клиент при этом должен произвести хеширование (проверку) старой папки (если не производит сам - помогите ему сделать это), и будет докачивать только те серии которых у вас ещё нет. Старые серии при этом не удаляются, а продолжают раздаваться!
Eсли вы уже удалили старые серии, то предотвратить повторную закачку старых серий можно, отжав галочку в соответствовавших местах при запуске нового торрента.
Скриншоты
Download
Чтобы скачать .torrent файл необходима регистрация
Сайт не распространяет и не хранит электронные версии произведений, а лишь предоставляет доступ к создаваемому пользователями каталогу ссылок на торрент-файлы, которые содержат только списки хеш-сумм
[Профиль]  [ЛС] 
 

kobra22

Стаж: 8 лет 4 месяца

Сообщений: 656

kobra22 · 01-Окт-14 20:17 (спустя 9 дней)

[Цитировать] 

Удивило, как так, наш сериал, а на Украине показали раньше, чем у нас(
[Профиль]  [ЛС] 

bonya-bonita

Стаж: 7 лет 2 месяца

Сообщений: 4

bonya-bonita · 03-Окт-14 21:53 (спустя 2 дня 1 час)

[Цитировать] 

Спасибо большое!
[Профиль]  [ЛС] 

Чумазоид

Стаж: 8 лет 8 месяцев

Сообщений: 5

Чумазоид · 05-Окт-14 18:48 (спустя 1 день 20 часов)

[Цитировать] 

kobra22 писал(а):
65327092Удивило, как так, наш сериал, а на Украине показали раньше, чем у нас(
Так это часто было, взять для примера "Ликвидацию", ну и много других, не вспомню сейчас просто
[Профиль]  [ЛС] 

lena876kp

Стаж: 4 года 9 месяцев

Сообщений: 31


lena876kp · 15-Окт-14 19:07 (спустя 10 дней)

[Цитировать] 

интересно, а будет ещё продолжение?
[Профиль]  [ЛС] 
 
Ответить
Loading...
Error