Адрес РуТрекера для пользователей РФ - MainTracker.org

Расскажи друзьям:  

Морские дьяволы. Смерч. Судьбы / Сезон: 1-2 / Серии: 1-14 из 14 (Александр Якимчук, Александр Картохин, Павел Мальков, Андрей Балашов, Сергей Раевский, Ник) [2013-2014, Боевик, детектив, криминал, WEB-DLRip]

Страницы:  1

Ответить
Автор
Сообщение

totero04

Стаж: 8 лет 4 месяца

Сообщений: 9

totero04 · 29-Ноя-14 11:40 (3 года 4 месяца назад, ред. 29-Ноя-14 12:18)

Морские дьяволы. Смерч. Судьбы
Год выпуска: 2013-2014
Производство: Россия , НТВ, "Гамма-продакшн"
Жанр: Боевик, детектив, криминал
Продолжительность: 14 x ~ 01:30:00
Субтитры: Нет
Режиссёр: Александр Якимчук, Александр Картохин, Павел Мальков, Андрей Балашов, Сергей Раевский, Николай Борц
В ролях: Олег Чернов, Серафима Низовская, Владимир Ярош, Эмилия Спивак, Иван Паршин, Мария Жиганова, Дарья Юргенс (Лесникова), Антон Гуляев, Дарья Циберкина, Игорь Григорьев (IV), Елена Шевченко, Олег Алмазов, Сергей Мардарь, Алексей Васильев (II), Вадим Бурлаков, Михаил Самочко, Роман Петросов, Александр Демич (II), Александр Удальцов, Илья Борисов, Кирилл Полухин, Анастасия Фурса, Роман Притула, Анатолий Хропов, Владислав Резник, Екатерина Решетникова, Сергей Барковский
Описание: «Смерчи» вновь действуют, и вновь – по одному. Новые отдельные фильмы о жизни героев – Бати, Багиры, Кота, Бизона, Физика, Муры и Пригова, в которых каждый отвечает сам за себя – в отпуске, на специальном задании или под прикрытием – словом тогда, когда коллег по Смерчу рядом нет, и надеяться, кроме самих себя, не на кого.
Все раздачи сериала Морские дьяволы. Смерч. Судьбы

Реклама отсутствует
Качество: WEBRip (by WEB-DLRip (AVC))
Формат: AVI
Видео кодек: XviD
Аудио кодек: AC3
Видео: 720x400 (1.80:1), 25 fps, XviD build 65 ~2095 kbps avg, 0.29 bit/pixel
Аудио: 48 kHz, AC3 Dolby Digital, 2/0 (L,R) ch, ~192 kbps
MediaInfo

Общее
Полное имя : D:\Мои фильмы\Morskije_d'javoly_Smerch_Sud'by_01-14iz14_2013-2014_XviD_WEBRip\Morskije_d'javoly_Smerch_Sud'by_01_iz_14_2013-2014_WEBRip.avi
Формат : AVI
Формат/Информация : Audio Video Interleave
Размер файла : 1,45 Гбайт
Продолжительность : 1 ч. 30 м.
Общий поток : 2297 Кбит/сек
Библиотека кодирования : VirtualDub build 35491/release
Видео
Идентификатор : 0
Формат : MPEG-4 Visual
Профиль формата : Advanced Simple@L5
Параметр BVOP формата : 2
Параметр QPel формата : Нет
Параметр GMC формата : Без точки перехода
Параметр матрицы формата : Выборочная
Идентификатор кодека : XVID
Идентификатор кодека/Подсказка : XviD
Продолжительность : 1 ч. 30 м.
Битрейт : 2096 Кбит/сек
Ширина : 720 пикселей
Высота : 400 пикселей
Соотношение сторон : 16:9
Частота кадров : 25,000 кадров/сек
Цветовое пространство : YUV
Субдискретизация насыщенности : 4:2:0
Битовая глубина : 8 бит
Тип развёртки : Прогрессивная
Метод сжатия : С потерями
Бит/(Пиксели*Кадры) : 0.291
Размер потока : 1,32 Гбайт (91%)
Библиотека кодирования : XviD 65
Аудио
Идентификатор : 1
Формат : AC-3
Формат/Информация : Audio Coding 3
Расширение режима : CM (complete main)
Параметр Endianness формата : Big
Идентификатор кодека : 2000
Продолжительность : 1 ч. 30 м.
Вид битрейта : Постоянный
Битрейт : 192 Кбит/сек
Каналы : 2 канала
Расположение каналов : Front: L R
Частота : 48,0 КГц
Битовая глубина : 16 бит
Метод сжатия : С потерями
Размер потока : 124 Мбайт (8%)
Выравнивание : Соединение по промежуткам
Продолжительность промежутка : 40 мс. (1,00 видеокадр)
Время предзагрузки промежутка : 512 мс.
Скриншоты
Download
Чтобы скачать .torrent файл необходима регистрация
Сайт не распространяет и не хранит электронные версии произведений, а лишь предоставляет доступ к создаваемому пользователями каталогу ссылок на торрент-файлы, которые содержат только списки хеш-сумм
[Профиль]  [ЛС] 
 

alienxxx

Top Bonus 01* 300GB

Стаж: 11 лет 11 месяцев

Сообщений: 370

alienxxx · 23-Мар-15 19:49 (спустя 3 месяца 24 дня)

[Цитировать] 

Тоже мне нашли заграницу в 1 серии )))
И по английски у нас никто не шпрехает...
[Профиль]  [ЛС] 

utgfhll

Стаж: 2 года 10 месяцев

Сообщений: 33

utgfhll · 27-Май-17 01:37 (спустя 2 года 2 месяца)

[Цитировать] 

Где список серий?их названия?
[Профиль]  [ЛС] 

Alexah_

Top User 12

Стаж: 8 лет 5 месяцев

Сообщений: 423

Alexah_ · 27-Ноя-17 01:03 (спустя 5 месяцев)

[Цитировать] 

а почему временная то?
[Профиль]  [ЛС] 
 
Ответить
Loading...
Error