Адрес РуТрекера для пользователей РФ - MainTracker.org

Расскажи друзьям:  

Хроники ломбарда / Сезон: 1 / Серии: 1-21 из 30 (Дмитрий Суворов, Яков Плоткин) [2014, Криминал, комедия, приключения, SATRip]

Страницы:  1

Ответить
Автор
Сообщение

Camerado

Top Seed 04* 320r

Стаж: 8 лет 5 месяцев

Сообщений: 3269

Camerado · 22-Янв-15 18:37 (3 года 5 месяцев назад, ред. 06-Сен-15 22:34)

Хроники ломбарда
«Они всегда в плюсе»
Год выпуска: 2014
Производство: Connect Film / Коннект Фильм
Жанр: Криминал, комедия, приключения
Продолжительность серии: ~00:23:00
Субтитры: есть (вшитые; на телефонные разговоры, речь цыган и т.п.)
Режиссёры: Дмитрий Суворов, Яков Плоткин
В ролях: Валерий Новиков, Юлия Лобода, Иван Руденко, Евгения Чиркова, Артур Бичахчян и др.
Описание: Интригующий сериал, в котором главную роль играют вещи, затягивающие главных героев в самые немыслимые передряги. Ведь иногда простая, на первый взгляд, безделушка может показать настоящую стоимость любви и дружбы. Каждый день в ломбарде происходит очередное таинство – появление уникальной вещицы. Только взгляд опытного скупщика способен выявить её из сотен других предметов. В каждой серии вас ждёт полное погружение в мир ценных вещей, интриг и подстав! Ведь в бизнесе от них никуда не спрятаться...

Реклама сторонних ресурсов отсутствует!
Сэмпл
Все раздачи сериала: Хроники ломбарда
Качество: SATRip
Формат: AVI
Видеокодек: XviD
Аудиокодек: MP3
Видео: | ~1500 kbps | 720x400 | 25.000 fps | 16:9 | 0.208 bit/pixel | XviD
Аудио: | 2.0 | 48 kHz | 128 kbps | 16-bit | MP3
MediaInfoXP
General
Complete name : F:\Хроники ломбарда\Хроники ломбарда - 01.avi
Format : AVI
Format/Info : Audio Video Interleave
File size : 272 MiB
Duration : 23mn 15s
Overall bit rate : 1 637 Kbps
Writing application : VirtualDubMod 1.5.10.3 | www.virtualdub-fr.org || (build 2550/release)
Writing library : VirtualDubMod build 2550/release
Video
ID : 0
Format : MPEG-4 Visual
Format profile : Advanced Simple@L5
Format settings, BVOP : 2
Format settings, QPel : No
Format settings, GMC : No warppoints
Format settings, Matrix : Default (MPEG)
Codec ID : XVID
Codec ID/Hint : XviD
Duration : 23mn 15s
Bit rate : 1 500 Kbps
Width : 720 pixels
Height : 400 pixels
Display aspect ratio : 16:9
Frame rate : 25.000 fps
Color space : YUV
Chroma subsampling : 4:2:0
Bit depth : 8 bits
Scan type : Progressive
Compression mode : Lossy
Bits/(Pixel*Frame) : 0.208
Stream size : 249 MiB (92%)
Writing library : XviD 1.2.1 (UTC 2008-12-04)
Audio
ID : 1
Format : MPEG Audio
Format version : Version 1
Format profile : Layer 3
Codec ID : 55
Codec ID/Hint : MP3
Duration : 23mn 15s
Bit rate mode : Constant
Bit rate : 128 Kbps
Channel(s) : 2 channels
Sampling rate : 48.0 KHz
Compression mode : Lossy
Stream size : 21.3 MiB (8%)
Alignment : Aligned on interleaves
Interleave, duration : 40 ms (1.00 video frame)
Interleave, preload duration : 504 ms
Writing library : LAME3.99r
Encoding settings : -m s -V 4 -q 2 -lowpass 17 -b 128
Скриншоты
----------
Внимание! Раздача ведётся путём добавления новых серий
Внимание! Раздача ведётся путём добавления новых серий; при каждом добавлении создаётся новый торрент. Чтобы начать докачку новой серии, пользователям необходимо сделать следующее:
1) Остановить скачивание
2) Удалить старый торрент у себя из клиента (серии удалять не надо)
3) Скачать новый торрент и запустить его у себя в клиенте вместо старого, при этом указать клиенту путь в старую папку, куда и должно происходить скачивание новых серий. Ваш клиент при этом должен произвести хеширование (проверку) старой папки (если не производит сам - помогите ему сделать это) и будет докачивать только те серии, которых у вас ещё нет. Старые серии при этом не удаляются, а продолжают раздаваться.
Eсли вы уже удалили старые серии, то предотвратить повторную закачку можно, убрав галочку в соответствующих местах при запуске нового торрента. По возможности желательно не удалять старые серии как можно дольше, чтобы релизер не столько продолжал раздавать старые серии, а смог сконцентрироваться на новых.
Download
Чтобы скачать .torrent файл необходима регистрация
Сайт не распространяет и не хранит электронные версии произведений, а лишь предоставляет доступ к создаваемому пользователями каталогу ссылок на торрент-файлы, которые содержат только списки хеш-сумм
[Профиль]  [ЛС] 
 

Серый1779

Top Seed 08* 5120r

Стаж: 8 лет 2 месяца

Сообщений: 7854

Серый1779 · 22-Янв-15 19:07 (спустя 29 мин.)

[Цитировать] 

Camerado
Оформите раздачу в соответствии с правилами раздела.
Тех. данные указаны не полностью.
О техданных
Отсутствует сэмп.
О сэмпле
Добавьте ссылку на все альтернативные раздачи.
О ссылках на предыдущие и альтернативные раздачи...
Есть ли в видео ряде реклама сторонних ресурсов?
О рекламе
Добавьте ссылку на все альтернативные раздачи.
О ссылках на предыдущие и альтернативные раздачи...
Образец оформления
Шаблон оформления раздачи в Русских сериалах
Добавте информацию для пользователей о том, что раздача идет методом добавления серий.
Внимание ! Раздача ведётся путём добавления новых серий
Внимание! Раздача ведётся путём добавления новых серий; при каждом добавлении создётся новый торрент. Чтобы начать докачку новой серии, пользователям необходимо сделать следующее:
(1) остановить скачивание,
(2) удалить старый торрент у себя из клиента (старые серии удалять не надо),
(3) скачать новый торрент и запустить его у себя в клиенте вместо старого, при этом указать клиенту путь в старую папку куда и должно происходить скачивание новых серий.
Ваш клиент при этом должен произвести хеширование (проверку) старой папки (если не производит сам - помогите ему сделать это), и будет докачивать только те серии которых у вас ещё нет. Старые серии при этом не удаляются, а продолжают раздаваться!
Eсли вы уже удалили старые серии, то предотвратить повторную закачку старых серий можно, отжав галочку в соответсвующих местах при запуске нового торрента. По возможности, желательно не удалять старые серии как можно дольше чтобы релизёр не столько продолжал раздавать старые серии, а смог сконцентрироваться на новых.
[Профиль]  [ЛС] 

konst2k6

Стаж: 10 лет 1 месяц

Сообщений: 19


konst2k6 · 04-Фев-15 21:52 (спустя 13 дней)

[Цитировать] 

товарищи, а где продолжение? о_О
[Профиль]  [ЛС] 

Camerado

Top Seed 04* 320r

Стаж: 8 лет 5 месяцев

Сообщений: 3269

Camerado · 05-Фев-15 07:31 (спустя 9 часов)

[Цитировать] 

konst2k6 писал(а):
66767659товарищи, а где продолжение? о_О
Пока не показывали больше на ТВ. Сам жду
[Профиль]  [ЛС] 

kocmogpom

Стаж: 8 лет 11 месяцев

Сообщений: 105


kocmogpom · 25-Июл-15 02:19 (спустя 5 месяцев 19 дней)

[Цитировать] 

редкостный шлак с трясущейся камерой и идиотским трэпом на заднем фоне
[Профиль]  [ЛС] 

nostaw

Стаж: 8 лет 11 месяцев

Сообщений: 26

nostaw · 25-Июл-15 10:42 (спустя 8 часов)

[Цитировать] 

Перешли на ростовщиковскую шушару. Шлак это мягко сказано, что по сюжету, что по игре актеров, что по режиссуре..
[Профиль]  [ЛС] 

ozv

Стаж: 5 лет 5 месяцев

Сообщений: 58

ozv · 07-Окт-17 19:08 (спустя 2 года 2 месяца)

[Цитировать] 

В сериале много шуток, у нас есть чувство юмора и мы посмотрели его с удовольствием
[Профиль]  [ЛС] 

FashSSS

Стаж: 4 года 5 месяцев

Сообщений: 11


FashSSS · 16-Апр-18 10:37 (спустя 6 месяцев)

[Цитировать] 

Продолжение???...
[Профиль]  [ЛС] 
 
Ответить
Loading...
Error