Улицы разбитых фонарей / Сезон: 1,2,3,4,5 / Серии: 1-135 из 135 (Александр Рогожкин, Игорь Москвитин, Кирилл Капица, Виталий Аксенов, Виктор Бутурлин....) [1997-2002, Детектив, DVDRip-AVC]

Страницы :  1, 2  След.

Ответить
Автор
Сообщение

D2T

Top User 50

Стаж: 11 лет 5 месяцев

Сообщений: 1352

D2T · 20-Фев-15 17:05 (3 года 8 месяцев назад, ред. 26-Июн-17 18:15)

Улицы разбитых фонарей
Год выпуска: 1997-2002
Производство: ООО "Новый Русский Сериал"
Жанр: Детектив
Продолжительность: ~00:50:00/00:45:00
Субтитры: нет
Режиссёр: Александр Рогожкин, Игорь Москвитин, Кирилл Капица, Виталий Аксенов, Виктор Бутурлин, Дмитрий Светозаров
В ролях: Александр Лыков, Александр Половцев, Юрий Кузнецов, Алексей Нилов, Михаил Трухин, Сергей Селин, Анастасия Мельникова, Анатолий Сливников, Игорь Ботвин, Андрей Кузнецов, Николай Трофимов, Леонид Максимов, Сергей Лысов, Александр Тютрюмов, Юрий Дедович, Дмитрий Барков (II), Виктор Сухоруков, Роман Жилкин, Юлия Алексеева, Кирилл Ульянов, Дмитрий Барков, Георгий Антонов, Сергей Дьячков, Анатолий Равикович, Валентин Букин, Кира Крейлис-Петрова, Юрий Гальцев, Евгения Игумнова, Юлия Ольшенко, Олег Чернов, Анна Молчанова, Виктор Бычков, Александра Фатхи, Ирина Климова, Михаил Девяткин, Михаил Морозов, Михаил Пореченков, Наталья Суркова, Анна Табанина, Алексей Зубарев (II), Наталья Акимова, Алексей Осокин, Екатерина Дронова, Александр Карпухов, Валерий Кравченко, Иван Кузьмин, Егор Томошевский, Дарья Лесникова, Сергей Барковский, Виктор Смирнов, Вадим Лобанов, Александр Романцов, Алексей Осьминин и др.
Описание: Каждый новый день — новое преступление. За каждым углом поджидает опасность. Главный козырь бандитов в бескомпромиссной криминальной бойне — страх обывателей.
Единственные, кто может бросить вызов преступникам — лишенные страха менты. Безупречная четверка вновь оказывается на грани. Каждый новый день — новый бой против бандитов…
Все раздачи сериала: http://1.maintracker.org/forum/viewforum.php?f=123
1 Сезон
Качество: DVDRip
Формат: MKV
Видео кодек: H.264
Аудио кодек: AC3
Видео: 640 Х 388 / 25 fps / ~1200 Kbps (2 pass)/ 0.193 Bits/(Pixel*Frame)
Аудио: AC3 / 48 KHz / 2.0 / ~192 Kbps
MI
General
Unique ID : 207789643209125781970797645296514541631 (0x9C52D460999BBB47A3C4C06DFF8AA83F)
Complete name : D:\Улицы разбитых фонарей\14 - Напиток для настоящих мужчин.mkv
Format : Matroska
Format version : Version 2
File size : 521 MiB
Duration : 52mn 13s
Overall bit rate : 1 394 Kbps
Movie name : 14 (03) - Напиток для настоящих мужчин - Улицы разбитых фонарей / "D2T/Криволапый ювелир"
Encoded date : UTC 2015-02-20 13:22:19
Writing application : mkvmerge v4.0.0 ('The Stars were mine') сборка от Jun 6 2010 16:18:42
Writing library : libebml v1.0.0 + libmatroska v1.0.0
Video
ID : 1
Format : AVC
Format/Info : Advanced Video Codec
Format profile : [email protected]
Format settings, CABAC : Yes
Format settings, ReFrames : 4 frames
Codec ID : V_MPEG4/ISO/AVC
Duration : 52mn 13s
Bit rate : 1 200 Kbps
Width : 640 pixels
Height : 388 pixels
Display aspect ratio : 16:10
Frame rate mode : Constant
Frame rate : 25.000 fps
Color space : YUV
Chroma subsampling : 4:2:0
Bit depth : 8 bits
Scan type : Progressive
Bits/(Pixel*Frame) : 0.193
Stream size : 438 MiB (84%)
Writing library : x264 core 142 r2431 ac76440
Encoding settings : cabac=1 / ref=3 / deblock=1:0:0 / analyse=0x1:0x131 / me=esa / subme=9 / psy=1 / psy_rd=1.00:0.00 / mixed_ref=1 / me_range=16 / chroma_me=1 / trellis=2 / 8x8dct=0 / cqm=0 / deadzone=21,11 / fast_pskip=1 / chroma_qp_offset=-2 / threads=6 / lookahead_threads=1 / sliced_threads=0 / nr=0 / decimate=1 / interlaced=0 / bluray_compat=0 / constrained_intra=0 / bframes=3 / b_pyramid=2 / b_adapt=2 / b_bias=0 / direct=3 / weightb=1 / open_gop=0 / weightp=2 / keyint=150 / keyint_min=1 / scenecut=33 / intra_refresh=0 / rc_lookahead=40 / rc=2pass / mbtree=1 / bitrate=1200 / ratetol=1.0 / qcomp=0.60 / qpmin=10 / qpmax=28 / qpstep=4 / cplxblur=20.0 / qblur=0.5 / vbv_maxrate=14000 / vbv_bufsize=14000 / nal_hrd=none / filler=0 / ip_ratio=1.40 / aq=1:1.00
Default : No
Forced : No
Audio
ID : 2
Format : AC-3
Format/Info : Audio Coding 3
Mode extension : CM (complete main)
Format settings, Endianness : Big
Codec ID : A_AC3
Duration : 52mn 13s
Bit rate mode : Constant
Bit rate : 192 Kbps
Channel(s) : 2 channels
Channel positions : Front: L R
Sampling rate : 48.0 KHz
Bit depth : 16 bits
Compression mode : Lossy
Stream size : 71.7 MiB (14%)
Language : Russian
Default : No
Forced : No
2 Сезон
Качество: DVDRip
Формат: MKV
Видео кодек: H.264
Аудио кодек: AC3
Видео: 25 fps / ~1200 Kbps (2 pass)/ 0.18 Bits/(Pixel*Frame)
688 Х 400 Серии: 1,6-12,14-24
640 Х 388 Серии: 2-5,13
Почему так
Не знаю чем руководствовались те, кто делал это сборник (DVD), но видео имеет 2 разных качества. Нормальное и ужасное И для каждого варианта выбран оптимальный вариант.
Аудио: AC3 / 48 KHz / 2.0 / ~192 Kbps
MI
General
Unique ID : 174742211564744378865792455655165403433 (0x837620331FE4030BB3A576255B862129)
Complete name : M:\Torrent\Улицы разбитых фонарей\Улицы разбитых фонарей. Новые приключения Ментов\01 - Аварийная защита.mkv
Format : Matroska
Format version : Version 2
File size : 482 MiB
Duration : 48mn 20s
Overall bit rate : 1 394 Kbps
Movie name : 01 (01) - Аварийная защита (по повести Андрея Кивинова «Мент обречённый») - Улицы разбитых фонарей. Новые приключения Ментов / "D2T/Криволапый ювелир"
Encoded date : UTC 2015-03-16 22:15:59
Writing application : mkvmerge v4.0.0 ('The Stars were mine') сборка от Jun 6 2010 16:18:42
Writing library : libebml v1.0.0 + libmatroska v1.0.0
Video
ID : 1
Format : AVC
Format/Info : Advanced Video Codec
Format profile : [email protected]
Format settings, CABAC : Yes
Format settings, ReFrames : 4 frames
Codec ID : V_MPEG4/ISO/AVC
Duration : 48mn 20s
Bit rate : 1 200 Kbps
Width : 688 pixels
Height : 400 pixels
Display aspect ratio : 1.720
Frame rate mode : Constant
Frame rate : 25.000 fps
Color space : YUV
Chroma subsampling : 4:2:0
Bit depth : 8 bits
Scan type : Progressive
Bits/(Pixel*Frame) : 0.174
Stream size : 406 MiB (84%)
Writing library : x264 core 142 r2431 ac76440
Encoding settings : cabac=1 / ref=3 / deblock=1:0:0 / analyse=0x1:0x131 / me=esa / subme=9 / psy=1 / psy_rd=1.00:0.00 / mixed_ref=1 / me_range=16 / chroma_me=1 / trellis=2 / 8x8dct=0 / cqm=0 / deadzone=21,11 / fast_pskip=1 / chroma_qp_offset=-2 / threads=6 / lookahead_threads=1 / sliced_threads=0 / nr=0 / decimate=1 / interlaced=0 / bluray_compat=0 / constrained_intra=0 / bframes=3 / b_pyramid=2 / b_adapt=2 / b_bias=0 / direct=3 / weightb=1 / open_gop=0 / weightp=2 / keyint=150 / keyint_min=1 / scenecut=33 / intra_refresh=0 / rc_lookahead=40 / rc=2pass / mbtree=1 / bitrate=1200 / ratetol=1.0 / qcomp=0.60 / qpmin=10 / qpmax=28 / qpstep=4 / cplxblur=20.0 / qblur=0.5 / vbv_maxrate=14000 / vbv_bufsize=14000 / nal_hrd=none / filler=0 / ip_ratio=1.40 / aq=1:1.00
Default : No
Forced : No
Audio
ID : 2
Format : AC-3
Format/Info : Audio Coding 3
Mode extension : CM (complete main)
Format settings, Endianness : Big
Codec ID : A_AC3
Duration : 48mn 20s
Bit rate mode : Constant
Bit rate : 192 Kbps
Channel(s) : 2 channels
Channel positions : Front: L R
Sampling rate : 48.0 KHz
Bit depth : 16 bits
Compression mode : Lossy
Stream size : 66.4 MiB (14%)
Language : Russian
Default : Yes
Forced : No
Скриншоты
3 Сезон
Качество: DVDRip
Формат: MKV
Видео кодек: H.264
Аудио кодек: AC3
Видео: 688 Х 400 / 25 fps / ~1200 Kbps (2 pass)/ 0.193 Bits/(Pixel*Frame)
Аудио: AC3 / 48 KHz / 2.0 / ~192 Kbps
MI
General
Unique ID : 197978705218136893468504696294941752122 (0x94F14FC9CE49C5A5B79EADFC22657B3A)
Complete name : M:\Torrent\Улицы разбитых фонарей\Улицы разбитых фонарей. Менты-3\01 - Дурь.mkv
Format : Matroska
Format version : Version 2
File size : 496 MiB
Duration : 49mn 44s
Overall bit rate : 1 394 Kbps
Movie name : 01 (03) - «Дурь» - Улицы разбитых фонарей. Менты-3 / "D2T/Криволапый ювелир"
Encoded date : UTC 2015-06-13 18:15:45
Writing application : mkvmerge v4.0.0 ('The Stars were mine') сборка от Jun 6 2010 16:18:42
Writing library : libebml v1.0.0 + libmatroska v1.0.0
Video
ID : 1
Format : AVC
Format/Info : Advanced Video Codec
Format profile : [email protected]
Format settings, CABAC : Yes
Format settings, ReFrames : 4 frames
Codec ID : V_MPEG4/ISO/AVC
Duration : 49mn 44s
Bit rate : 1 200 Kbps
Width : 688 pixels
Height : 400 pixels
Display aspect ratio : 1.720
Frame rate mode : Constant
Frame rate : 25.000 fps
Color space : YUV
Chroma subsampling : 4:2:0
Bit depth : 8 bits
Scan type : Progressive
Bits/(Pixel*Frame) : 0.174
Stream size : 418 MiB (84%)
Writing library : x264 core 146 r2538 121396c
Encoding settings : cabac=1 / ref=3 / deblock=1:0:0 / analyse=0x1:0x131 / me=esa / subme=9 / psy=1 / psy_rd=1.00:0.00 / mixed_ref=1 / me_range=16 / chroma_me=1 / trellis=2 / 8x8dct=0 / cqm=0 / deadzone=21,11 / fast_pskip=1 / chroma_qp_offset=-2 / threads=6 / lookahead_threads=1 / sliced_threads=0 / nr=0 / decimate=1 / interlaced=0 / bluray_compat=0 / constrained_intra=0 / bframes=3 / b_pyramid=2 / b_adapt=2 / b_bias=0 / direct=3 / weightb=1 / open_gop=0 / weightp=2 / keyint=150 / keyint_min=1 / scenecut=33 / intra_refresh=0 / rc_lookahead=40 / rc=2pass / mbtree=1 / bitrate=1200 / ratetol=1.0 / qcomp=0.60 / qpmin=10 / qpmax=28 / qpstep=4 / cplxblur=20.0 / qblur=0.5 / vbv_maxrate=14000 / vbv_bufsize=14000 / nal_hrd=none / filler=0 / ip_ratio=1.40 / aq=1:1.00
Default : No
Forced : No
Audio
ID : 2
Format : AC-3
Format/Info : Audio Coding 3
Mode extension : CM (complete main)
Format settings, Endianness : Big
Codec ID : A_AC3
Duration : 49mn 44s
Bit rate mode : Constant
Bit rate : 192 Kbps
Channel(s) : 2 channels
Channel positions : Front: L R
Sampling rate : 48.0 KHz
Bit depth : 16 bits
Compression mode : Lossy
Stream size : 68.3 MiB (14%)
Language : Russian
Default : Yes
Forced : No
4 Сезон
Качество: DVDRip
Формат: MKV
Видео кодек: H.264
Аудио кодек: AC3
Видео: 688 Х 400 / 25 fps / ~1200 Kbps (2 pass)/ 0.193 Bits/(Pixel*Frame)
Аудио: AC3 / 48 KHz / 2.0 / ~192 Kbps
MI
General
Unique ID : 197886417165587197132683241984079626865 (0x94DF89A2D1AA636384F8DD7D80630271)
Complete name : M:\Torrent\Улицы разбитых фонарей\Улицы разбитых фонарей. Менты-4\01 - Знак судьбы.mkv
Format : Matroska
Format version : Version 2
File size : 502 MiB
Duration : 50mn 21s
Overall bit rate : 1 393 Kbps
Movie name : 01 (01) - «Знак судьбы» - Улицы разбитых фонарей. Менты-4 / "D2T/Криволапый ювелир"
Encoded date : UTC 2016-02-19 20:45:28
Writing application : mkvmerge v4.0.0 ('The Stars were mine') сборка от Jun 6 2010 16:18:42
Writing library : libebml v1.0.0 + libmatroska v1.0.0
Video
ID : 1
Format : AVC
Format/Info : Advanced Video Codec
Format profile : [email protected]
Format settings, CABAC : Yes
Format settings, ReFrames : 4 frames
Codec ID : V_MPEG4/ISO/AVC
Duration : 50mn 21s
Bit rate : 1 200 Kbps
Width : 688 pixels
Height : 400 pixels
Display aspect ratio : 1.720
Frame rate mode : Constant
Frame rate : 25.000 fps
Color space : YUV
Chroma subsampling : 4:2:0
Bit depth : 8 bits
Scan type : Progressive
Bits/(Pixel*Frame) : 0.174
Stream size : 423 MiB (84%)
Writing library : x264 core 146 r2538 121396c
Encoding settings : cabac=1 / ref=3 / deblock=1:0:0 / analyse=0x1:0x131 / me=esa / subme=9 / psy=1 / psy_rd=1.00:0.00 / mixed_ref=1 / me_range=16 / chroma_me=1 / trellis=2 / 8x8dct=0 / cqm=0 / deadzone=21,11 / fast_pskip=1 / chroma_qp_offset=-2 / threads=6 / lookahead_threads=1 / sliced_threads=0 / nr=0 / decimate=1 / interlaced=0 / bluray_compat=0 / constrained_intra=0 / bframes=3 / b_pyramid=2 / b_adapt=2 / b_bias=0 / direct=3 / weightb=1 / open_gop=0 / weightp=2 / keyint=150 / keyint_min=1 / scenecut=33 / intra_refresh=0 / rc_lookahead=40 / rc=2pass / mbtree=1 / bitrate=1200 / ratetol=1.0 / qcomp=0.60 / qpmin=10 / qpmax=28 / qpstep=4 / cplxblur=20.0 / qblur=0.5 / vbv_maxrate=14000 / vbv_bufsize=14000 / nal_hrd=none / filler=0 / ip_ratio=1.40 / aq=1:1.00
Default : No
Forced : No
Audio
ID : 2
Format : AC-3
Format/Info : Audio Coding 3
Mode extension : CM (complete main)
Format settings, Endianness : Big
Codec ID : A_AC3
Duration : 50mn 21s
Bit rate mode : Constant
Bit rate : 192 Kbps
Channel(s) : 2 channels
Channel positions : Front: L R
Sampling rate : 48.0 KHz
Bit depth : 16 bits
Compression mode : Lossy
Stream size : 69.2 MiB (14%)
Language : Russian
Default : Yes
Forced : No
Скриншоты
5 Сезон
Качество: DVDRip
Формат: MKV
Видео кодек: H.264
Аудио кодек: AC3
Видео: 688 Х 400 / 25 fps / ~1200 Kbps (2 pass)/ 0.193 Bits/(Pixel*Frame)
Аудио: AC3 / 48 KHz / 2.0 / ~192 Kbps
В 10 серии картинка рассыпается в одном месте на секунд 10. Так было и в исходниках
MI
General
Unique ID : 242262919296717632638090354734531184294 (0xB642241D161799948D972E9FB2B986A6)
Complete name : M:\Torrent\Сериалы\Улицы разбитых фонарей\Улицы разбитых фонарей. Менты-5\01 - Дезинфекция.mkv
Format : Matroska
Format version : Version 2
File size : 458 MiB
Duration : 45mn 58s
Overall bit rate : 1 394 Kbps
Movie name : 01 (03) - «Дезинфекция» - Улицы разбитых фонарей. Менты-5 / "D2T/Криволапый ювелир"
Encoded date : UTC 2017-06-25 16:56:24
Writing application : mkvmerge v4.0.0 ('The Stars were mine') сборка от Jun 6 2010 16:18:42
Writing library : libebml v1.0.0 + libmatroska v1.0.0
Video
ID : 1
Format : AVC
Format/Info : Advanced Video Codec
Format profile : [email protected]
Format settings, CABAC : Yes
Format settings, ReFrames : 4 frames
Codec ID : V_MPEG4/ISO/AVC
Duration : 45mn 58s
Bit rate : 1 200 Kbps
Width : 688 pixels
Height : 400 pixels
Display aspect ratio : 1.720
Frame rate mode : Constant
Frame rate : 25.000 fps
Color space : YUV
Chroma subsampling : 4:2:0
Bit depth : 8 bits
Scan type : Progressive
Bits/(Pixel*Frame) : 0.174
Stream size : 386 MiB (84%)
Writing library : x264 core 148 r2638 7599210
Encoding settings : cabac=1 / ref=3 / deblock=1:0:0 / analyse=0x1:0x131 / me=esa / subme=9 / psy=1 / psy_rd=1.00:0.00 / mixed_ref=1 / me_range=16 / chroma_me=1 / trellis=2 / 8x8dct=0 / cqm=0 / deadzone=21,11 / fast_pskip=1 / chroma_qp_offset=-2 / threads=6 / lookahead_threads=1 / sliced_threads=0 / nr=0 / decimate=1 / interlaced=0 / bluray_compat=0 / constrained_intra=0 / bframes=3 / b_pyramid=2 / b_adapt=2 / b_bias=0 / direct=3 / weightb=1 / open_gop=0 / weightp=2 / keyint=150 / keyint_min=1 / scenecut=33 / intra_refresh=0 / rc_lookahead=40 / rc=2pass / mbtree=1 / bitrate=1200 / ratetol=1.0 / qcomp=0.60 / qpmin=10 / qpmax=28 / qpstep=4 / cplxblur=20.0 / qblur=0.5 / vbv_maxrate=14000 / vbv_bufsize=14000 / nal_hrd=none / filler=0 / ip_ratio=1.40 / aq=1:1.00
Default : No
Forced : No
Audio
ID : 2
Format : AC-3
Format/Info : Audio Coding 3
Mode extension : CM (complete main)
Format settings, Endianness : Big
Codec ID : A_AC3
Duration : 45mn 58s
Bit rate mode : Constant
Bit rate : 192 Kbps
Channel(s) : 2 channels
Channel positions : Front: L R
Sampling rate : 48.0 KHz
Bit depth : 16 bits
Compression mode : Lossy
Stream size : 63.1 MiB (14%)
Language : Russian
Default : Yes
Forced : No
Скриншоты
Релиз
"D2T/Криволапый ювелир"

Обновлено 26.06.2017 - Добавлен 5 сезон
Download
Чтобы скачать .torrent файл необходима регистрация
Сайт не распространяет и не хранит электронные версии произведений, а лишь предоставляет доступ к создаваемому пользователями каталогу ссылок на торрент-файлы, которые содержат только списки хеш-сумм
[Профиль]  [ЛС] 
 

Бородатый Карпов

Стаж: 4 года

Сообщений: 45

Бородатый Карпов · 20-Фев-15 17:14 (спустя 8 мин.)

[Цитировать] 

Все молодые ещё, не опухшая синь как счас
[Профиль]  [ЛС] 

D2T

Top User 50

Стаж: 11 лет 5 месяцев

Сообщений: 1352

D2T · 21-Фев-15 02:24 (спустя 9 часов, ред. 21-Фев-15 02:24)

[Цитировать] 

Нашлась проблема с нумерацией серий
Исправлено
[Профиль]  [ЛС] 

D2T

Top User 50

Стаж: 11 лет 5 месяцев

Сообщений: 1352

D2T · 18-Мар-15 00:15 (спустя 24 дня, ред. 18-Мар-15 00:15)

[Цитировать] 

Добавлен 2 сезон
Для тех кто качал ранее:
Создать папку "Улицы разбитых фонарей" и переместить туда ранее скаченное
[Профиль]  [ЛС] 

tirror

Стаж: 11 лет 2 месяца

Сообщений: 121

tirror · 19-Мар-15 23:31 (спустя 1 день 23 часа)

[Цитировать] 

D2T, спасибо. Первые сезоны просто отличные.
[Профиль]  [ЛС] 

trich

Стаж: 7 лет 8 месяцев

Сообщений: 36


trich · 20-Мар-15 14:51 (спустя 15 часов)

[Цитировать] 

Решил пересмотреть с начала.
Говорят "Не возвращайся туда где был счастлив"
Посмотрим................................
[Профиль]  [ЛС] 

koistinen

Стаж: 8 лет

Сообщений: 17

koistinen · 26-Мар-15 12:56 (спустя 5 дней)

[Цитировать] 

Я так понимаю, что это самые ранние серии? самый смак?
[Профиль]  [ЛС] 

alexeykvakun869

Стаж: 4 года 10 месяцев

Сообщений: 1


alexeykvakun869 · 27-Мар-15 17:24 (спустя 1 день 4 часа)

[Цитировать] 

koistinen писал(а):
67300883Я так понимаю, что это самые ранние серии? самый смак?
Он самый.
[Профиль]  [ЛС] 

ANDRE-KRAS

Стаж: 10 лет 2 месяца

Сообщений: 90

ANDRE-KRAS · 23-Апр-15 16:13 (спустя 26 дней)

[Цитировать] 

Весит каждая серия нормально, а вот качество картинки судя по скринам низкое.
[Профиль]  [ЛС] 

D2T

Top User 50

Стаж: 11 лет 5 месяцев

Сообщений: 1352

D2T · 24-Апр-15 00:55 (спустя 8 часов)

[Цитировать] 

ANDRE-KRAS
а откуда ему взяться?
[Профиль]  [ЛС] 

ol87

Стаж: 8 лет 9 месяцев

Сообщений: 338

ol87 · 30-Май-15 11:40 (спустя 1 месяц 6 дней)

[Цитировать] 

Снято за 3 копейки, зато одна серия с лихвой перекрывает "Сталинград" Бондарчука и прочее г... в красивой обертке, потому как с душой сделано.
[Профиль]  [ЛС] 

tirror

Стаж: 11 лет 2 месяца

Сообщений: 121

tirror · 01-Июн-15 21:35 (спустя 2 дня 9 часов)

[Цитировать] 

D2T, дружище третий будет?
[Профиль]  [ЛС] 

D2T

Top User 50

Стаж: 11 лет 5 месяцев

Сообщений: 1352

D2T · 14-Сен-15 19:25 (спустя 3 месяца 12 дней)

[Цитировать] 

4?
[Профиль]  [ЛС] 

tirror

Стаж: 11 лет 2 месяца

Сообщений: 121

tirror · 26-Сен-15 19:02 (спустя 11 дней)

[Цитировать] 

D2T писал(а):
687427854?
4 сезон. Или я что то не правильно понял?
[Профиль]  [ЛС] 

D2T

Top User 50

Стаж: 11 лет 5 месяцев

Сообщений: 1352

D2T · 27-Сен-15 19:11 (спустя 1 день)

[Цитировать] 

А остановиться на 15?
[Профиль]  [ЛС] 

tirror

Стаж: 11 лет 2 месяца

Сообщений: 121

tirror · 27-Сен-15 20:19 (спустя 1 час 8 мин.)

[Цитировать] 

D2T писал(а):
68840620А остановиться на 15?
Тут все от вас зависит Я не настаиваю.
[Профиль]  [ЛС] 

vova-bz

Стаж: 9 лет 8 месяцев

Сообщений: 192

vova-bz · 27-Окт-15 18:12 (спустя 29 дней)

[Цитировать] 

Либо скачалось у меня так, либо действительно качество ужасное!!!!
1 сезон 16,17 серии вообще никак толком не посмотреть.... Начинает тормозить видео или вообще закрывает. Пробовал смотреть на ДК, а так же на ПК. Эффект один и тот же((((
[Профиль]  [ЛС] 

D2T

Top User 50

Стаж: 11 лет 5 месяцев

Сообщений: 1352

D2T · 27-Окт-15 22:21 (спустя 4 часа)

[Цитировать] 

качество какое есть
с серия все нормально. перекачать
[Профиль]  [ЛС] 

SkyDeZ

Стаж: 6 лет

Сообщений: 76

SkyDeZ · 06-Янв-16 18:49 (спустя 2 месяца 9 дней, ред. 06-Янв-16 18:49)

[Цитировать] 

Супер! Автор, спасибо тебе! Как раз здесь собраны все три первых сезона. Это мои самые любимые сезоны, а дальше (начиная с 4-го) я смотрел через раз. Мне они не понравились. Так что респект за Первый, Второй (самый мой любимый) и Третий сезоны, старик!
[Профиль]  [ЛС] 

Harry Palmer

Top Seed 02* 80r

Стаж: 10 лет 6 месяцев

Сообщений: 1274

Harry Palmer · 17-Янв-16 08:21 (спустя 10 дней, ред. 19-Апр-16 16:59)

[Цитировать] 

D2T писал(а):
66939351Не знаю чем руководствовались те, кто делал это сборник (DVD), но видео имеет 2 разных качества. Нормальное и ужасное И для каждого варианта выбран оптимальный вариант.
Как же я жалею, что в своё время поленился скачать первые два-три сезона с одного из онлайн-кинотеатров. Качество видео там было неидеальное, но наилучшее из всего имеющегося в интернете. Сейчас сериала там уже нет, постарались ПО-шники.
[Профиль]  [ЛС] 

and.824b

Стаж: 7 лет 9 месяцев

Сообщений: 14


and.824b · 06-Фев-16 13:03 (спустя 20 дней)

[Цитировать] 

сделай 4,5,6 сезоны в таком же качестве
[Профиль]  [ЛС] 

tirror

Стаж: 11 лет 2 месяца

Сообщений: 121

tirror · 17-Мар-16 20:40 (спустя 1 месяц 11 дней)

[Цитировать] 

Mwa-ha-ha-ha! А ведь я верил что будет 4 сезон. Спасибо.
[Профиль]  [ЛС] 

хун вей бин

Стаж: 9 лет 7 месяцев

Сообщений: 163

хун вей бин · 07-Май-16 21:27 (спустя 1 месяц 21 день)

[Цитировать] 

В первом сезоне в 26 серии беда в правом канале звуковой дорожки: отсутствуют звуки речи, отчего при просмотре возникает чувство дискомфорта.
Это дефект оригинальной дорожки или огрехи рипования?
[Профиль]  [ЛС] 

Harry Palmer

Top Seed 02* 80r

Стаж: 10 лет 6 месяцев

Сообщений: 1274

Harry Palmer · 08-Май-16 08:40 (спустя 11 часов)

[Цитировать] 

хун вей бин писал(а):
70644775В первом сезоне в 26 серии беда в правом канале звуковой дорожки: отсутствуют звуки речи, отчего при просмотре возникает чувство дискомфорта.
Это дефект оригинальной дорожки или огрехи рипования?
Это в исходнике так. И не только в 26 серии. Я только на днях имел дело с теми DVD, с которых была сделана эта раздача. Кстати, такая беда с речью, звучащей только в одном канале, была и на "лицензионных" DVD первых сезонов Тайн следствия и Синдбада.
[Профиль]  [ЛС] 

D2T

Top User 50

Стаж: 11 лет 5 месяцев

Сообщений: 1352

D2T · 08-Май-16 23:10 (спустя 14 часов)

[Цитировать] 

хун вей бин
Double.O.Seven
Значит мне не показалось. Можно сделать моно. Звук изначально моно.
[Профиль]  [ЛС] 

Elegio23

Стаж: 7 лет 1 месяц

Сообщений: 615

Elegio23 · 27-Май-16 14:41 (спустя 18 дней)

[Цитировать] 

Во...как...
Смеялись...Ду-калис....
Мухоморы...всякие...
Эта...затесалась...депутатша...
Хохма...развесистая...
Поделка пьяных ремесленников...
А ОКАЗАЛОСЬ..ЭПИЧЕСКОЕ ПОЛОТНО...
КЛАССИКА...ВЫДЕРЖАВШАЯ ИСПЫТАНИЕ ВРЕМЕНЕМ...
КАК ЭТО У МУЗЕЙНЫХ РАБОТНИКОВ...
"НЕТЛЕНКА"....
На фоне "новоделов" в форме Ёлок....
Это просто шедевральное полотно...
[Профиль]  [ЛС] 

Shahi

Стаж: 11 лет 5 месяцев

Сообщений: 80


Shahi · 24-Июн-16 19:12 (спустя 28 дней, ред. 24-Июн-16 19:12)

[Цитировать] 

Чем отличается от этой http://1.maintracker.org/forum/viewtopic.php?t=3912044 раздачи? Только форматом?
P.S. А, вижу, кодек другой и разрешение.
[Профиль]  [ЛС] 

Sochi 1914

Стаж: 4 года 8 месяцев

Сообщений: 4

Sochi 1914 · 25-Июн-16 18:42 (спустя 23 часа)

[Цитировать] 

D2T, спасибо за труды!
Было бы классно довести раздачу до всех сезонов в MKV 1200 Kbps.
[Профиль]  [ЛС] 

D2T

Top User 50

Стаж: 11 лет 5 месяцев

Сообщений: 1352

D2T · 30-Июн-16 20:25 (спустя 5 дней)

[Цитировать] 

можно конечно сделать
просто исходники так себе
[Профиль]  [ЛС] 

Анатолий199228

Стаж: 4 года 6 месяцев

Сообщений: 3


Анатолий199228 · 06-Сен-16 11:10 (спустя 2 месяца 5 дней)

[Цитировать] 

а пятый сезон планируется в формате mkv?
[Профиль]  [ЛС] 
 
Ответить
Loading...
Error