Адрес РуТрекера для пользователей РФ - 11.MainTracker.org

Расскажи друзьям:  

Адрес РуТрекера для пользователей РФ - 11.MainTracker.org

Расскажи друзьям:  

Настоящий детектив / True Detective (Кэри Фукунага) [1 Сезон][8 из 8][2014, драма, криминал, HDTVRip] MVO (Новамедиа)

Страницы:  1
Ответить
Автор
Сообщение

ZIP_sq

RG VGW

Стаж: 12 лет 3 месяца

Сообщений: 1544

ZIP_sq · 11-Апр-15 18:10 (4 года 6 месяцев назад)

Настоящий детектив
- - - - - - - - - -
Оригинальное Название: True Detective
Год Выпуска: 2014
Cтрана: США
Жанр: драма, криминал
Сезон: 1
Кол-во Серий: 8 из 8
Продолжительность серии: ~ 60 мин.
Перевод: Профессиональный (многоголосый, закадровый) ["Новамедиа" по заказу Amedia]
Режиссер: Кэри Фукунага
В ролях: Мэттью МакКонахи, Вуди Харрельсон, Мишель Монахэн, Брюс Эллиотт, Рендал Гонсалес, Тори Киттлз, Дэвид Стивен Митчелл, Майкл Поттс, Эрик Прайс, Мэдисон Вульф и др.
Описание:
Главные герои — два детектива. В 2012 году в штате Луизиана повторно открывается дело о серийном убийстве в 1995 году. Детективы познакомились 17 лет назад, когда началось расследование, и с тех пор вместе охотились за киллером. Повествование будет вестись как в наше время, так и откатится назад, в середину девяностых.

Источник: HDTV 1080i
Качество: HDTVRip
Формат: MP4
Видео кодек: H.264
Аудио кодек: AAC
Видео: MPEG-4 AVC Video (H.264) / 480х272 / 586-680 kbps / 23.976 fps / 16:9 / Main Profile 3.0
Аудио: AAC, 2 channels, 48 kHz, 128 kbps

Список серий
1. Огромная яркая темнота / The Long Bright Dark
2. Галлюцинации / Seeing Things
3. Закрытая комната / The Locked Room
4. Кто туда пойдет / Who Goes There
5. Тайная судьба всей жизни / The Secret Fate of All Life
6. Дома с привидениями / Haunted Houses
7. После того, как ты ушел / After You've Gone
8. Форма и пустота / Form and Void

MediaInfo
Код:
General
Complete name                       : D:\PSP\Раздачи\Сериалы\Настоящий детектив (1 Сезон)\True.Detective.s01e01.HDTVRip.rus.Amedia.mp4
Format                              : MPEG-4
Format profile                      : Base Media
Codec ID                            : isom
File size                           : 332 MiB
Duration                            : 1h 0mn
Overall bit rate mode               : Variable
Overall bit rate                    : 762 Kbps
Encoded date                        : UTC 2014-01-14 07:47:29
Tagged date                         : UTC 2014-01-14 07:47:29
Video
ID                                  : 1
Format                              : AVC
Format/Info                         : Advanced Video Codec
Format profile                      : Main@L3.0
Format settings, CABAC              : Yes
Format settings, ReFrames           : 3 frames
Codec ID                            : avc1
Codec ID/Info                       : Advanced Video Coding
Duration                            : 1h 0mn
Bit rate                            : 639 Kbps
Maximum bit rate                    : 9 680 Kbps
Width                               : 480 pixels
Height                              : 272 pixels
Display aspect ratio                : 16:9
Frame rate mode                     : Constant
Frame rate                          : 23.976 fps
Color space                         : YUV
Chroma subsampling                  : 4:2:0
Bit depth                           : 8 bits
Scan type                           : Progressive
Bits/(Pixel*Frame)                  : 0.204
Stream size                         : 275 MiB (83%)
Writing library                     : x264 core 130 r2273 b3065e6
Encoding settings                   : cabac=1 / ref=3 / deblock=1:-2:-1 / analyse=0x1:0x131 / me=umh / subme=9 / psy=1 / psy_rd=1.00:0.20 / mixed_ref=1 / me_range=16 / chroma_me=1 / trellis=2 / 8x8dct=0 / cqm=0 / deadzone=21,11 / fast_pskip=0 / chroma_qp_offset=-3 / threads=12 / lookahead_threads=1 / sliced_threads=0 / nr=0 / decimate=0 / interlaced=0 / bluray_compat=0 / constrained_intra=0 / bframes=3 / b_pyramid=0 / b_adapt=2 / b_bias=0 / direct=1 / weightb=1 / open_gop=0 / weightp=2 / keyint=250 / keyint_min=23 / scenecut=40 / intra_refresh=0 / rc=cqp / mbtree=0 / qp=17 / ip_ratio=1.40 / pb_ratio=1.30 / aq=0
Encoded date                        : UTC 2014-01-14 07:47:29
Tagged date                         : UTC 2014-01-14 07:48:16
Audio
ID                                  : 2
Format                              : AAC
Format/Info                         : Advanced Audio Codec
Format profile                      : LC
Codec ID                            : 40
Duration                            : 1h 0mn
Bit rate mode                       : Variable
Bit rate                            : 127 Kbps
Maximum bit rate                    : 147 Kbps
Channel(s)                          : 2 channels
Channel positions                   : Front: L R
Sampling rate                       : 48.0 KHz
Compression mode                    : Lossy
Delay relative to video             : 42ms
Stream size                         : 55.2 MiB (17%)
Encoded date                        : UTC 2014-01-14 07:48:14
Tagged date                         : UTC 2014-01-14 07:48:16

Скриншоты


Если вы скачали данный релиз и хотите выложить его на другом ресурсе -
пожалуйста, указывайте первоисточник
- R.G. Video Games World
Download
Сайт не распространяет и не хранит электронные версии произведений, а лишь предоставляет доступ к создаваемому пользователями каталогу ссылок на торрент-файлы, которые содержат только списки хеш-сумм
Как скачивать? (для скачивания .torrent файлов необходима регистрация)
[Профиль]  [ЛС] 
 

Брахиопод

Стаж: 4 года 9 месяцев

Сообщений: 467

Брахиопод · 25-Июн-15 19:04 (спустя 2 месяца 14 дней)

Радует, что автор снова сделал раздачу для псп (вот бы и для Симпсонов с Гриффинами продолжал делать псп-шки... ) но не радует озвучка. Сюда бы Сербина или Доктора Джокера.
[Профиль]  [ЛС] 

ZIP_sq

RG VGW

Стаж: 12 лет 3 месяца

Сообщений: 1544

ZIP_sq · 25-Июн-15 21:46 (спустя 2 часа 41 мин.)

Брахиопод писал(а):
68128805Радует, что автор снова сделал раздачу для псп
Было время, решил восстановить большинство раздач, которые когда-то закрыли ПО. Некоторые уже снова поудаляли, другие еще держатся)
Брахиопод писал(а):
68128805вот бы и для Симпсонов с Гриффинами продолжал делать псп-шки...
Симпсонов продолжил делать lokomotiv23, а Гриффинов - да, никто больше не взялся.
Брахиопод писал(а):
68128805но не радует озвучка. Сюда бы Сербина или Доктора Джокера.
Если есть нужные дорожки синхронизированные под HDTV, то замена перевода во всех сериях с помощью XviD4PSP - дело 10 минут.
[Профиль]  [ЛС] 

robofob

Стаж: 4 года 8 месяцев

Сообщений: 18


robofob · 04-Сен-15 18:35 (спустя 2 месяца 8 дней, ред. 04-Сен-15 18:35)

ZIP_sq
Спасибо. Офигенно. Слегка пережато, но весьма достойно. Перевод хороший.
[Профиль]  [ЛС] 

RexTiam

Стаж: 9 лет 7 месяцев

Сообщений: 12


RexTiam · 06-Янв-19 23:24 (спустя 3 года 4 месяца)

Снимаюсь с сидирования. прошу прощения. мало кто поддерживает данный релиз, но надеюсь кто-то начнёт
[Профиль]  [ЛС] 
 
Ответить
Loading...
Error