След / Серии 001 - 118, 120, 125 (Всеволод Аравин, Игорь Кечаев, Юрий Харнас и др.) [2007-2008, Детектив, DVDRip]

Страницы:  1

Ответить
Автор
Сообщение

nikolodo

RG Русские сериалы

Стаж: 10 лет 5 месяцев

Сообщений: 539

nikolodo · 11-Май-15 14:28 (3 года 1 месяц назад, ред. 15-Июл-15 16:18)

След
Год выпуска: 2007-2008
Производство: ООО "ДокуДрама", Россия
Жанр: Детектив
Продолжительность: ~ 39 мин.
Режиссёр: Всеволод Аравин, Игорь Кечаев, Юрий Харнас и др.
В ролях: Ольга Копосова, Павел Шуваев, Георгий Тесля-Герасимов, Евгений Кулаков, Сергей Пиоро, Владимир Ташлыков, Владимир Свешников, Ольга Недоводина, Ольга Зейгер, Татьяна Исакова, Андрей Лавров, Олег Осипов, Анна Данькова, Юлия Вайшнур, Елена Головизина, Анастасия Груздева
Описание: Идеальных преступлений не бывает. После каждого остаются следы. Иногда эти следы бросаются в глаза. Иногда их можно найти только с помощью специальных приборов. Действие сериала разворачивается в Москве вокруг новой экспериментальной лаборатории - Федеральной Экспертной службы, оснащённой по последнему слову техники. Это уникальная лаборатория, которая объединяет несколько экспертных служб в одну и отвечает за проведение исследований во всех мыслимых областях прикладной криминалистики, будь то химическая, биологическая, медицинская экспертиза или баллистика... ФЭС - это суперкоманда нашего времени, лучшие кадры всех областей криминалистики. Исследуя различные улики, генерируя всевозможные версии и ситуации, они помогают следствию в раскрытии реальных уголовных преступлений. Первостепенная задача ФЭС – найти то, что не смогут другие, их интерес – материальный мир места преступления. Миллиметр за миллиметром они исследуют каждую улику, ничто не останется незамеченным. ФЭС не только обкатывает новую технику, но и обучает молодых специалистов, повышает квалификацию опытных сотрудников... Работа организована таким образом, что за помощью может обратиться и «важняк» из прокуратуры, расследующий «громкое» заказное убийство, и молодой участковый... Эксперты помогут. Они найдут и предъявят ту самую главную улику, которая изобличит преступника и выведет следствие на правильное направление. Сотрудниками ФЭС очень подробно изучается материальный мир на месте преступления, тело жертвы (если она есть), подозреваемый, его одежда, орудия преступления… Все детали с большим компьютерным увеличением демонстрируются зрителям. Никакого смакования уродств, ран и трупов. Но укрупнения деформированного предмета, капли, брызги, щепки, пыль, отпечатки пальцев, восстановление трасс, компьютерная графика для воспроизведения места преступления – все это становится понятным и интересным зрителям. Каждая серия – это законченная история, одно дело. Иногда, для расследования одного дела одной серии мало.
Релиз от:
Все раздачи сериала
Сэмпл
Качество: DVDRip
Формат: AVI
Видео кодек: XviD
Аудио кодек: MP3
Видео: 704x400 (1.76:1), 25 fps, XviD build 73 ~1400 kbps avg, 0.20 bit/pixel
Аудио: 48 kHz, MPEG Layer 3, 2 ch, ~128.00 kbps avg
MI
Формат : AVI
Формат/Информация : Audio Video Interleave
Размер файла : 429 Мбайт
Продолжительность : 39 м.
Общий поток : 1539 Кбит/сек
Программа кодирования : VirtualDubMod 1.5.10.3 | www.virtualdub-fr.org || (build 2550/release)
Библиотека кодирования : VirtualDubMod build 2550/release
Видео
Идентификатор : 0
Формат : MPEG-4 Visual
Профиль формата : Advanced Simple@L5
Параметр BVOP формата : 2
Параметр QPel формата : Нет
Параметр GMC формата : Без точки перехода
Параметр матрицы формата : Default (MPEG)
Идентификатор кодека : XVID
Идентификатор кодека/Подсказка : XviD
Продолжительность : 39 м.
Битрейт : 1401 Кбит/сек
Ширина : 704 пикселя
Высота : 400 пикселей
Соотношение сторон : 16:9
Частота кадров : 25,000 кадров/сек
Цветовое пространство : YUV
Субдискретизация насыщенности : 4:2:0
Битовая глубина : 8 бит
Тип развёртки : Прогрессивная
Метод сжатия : С потерями
Бит/(Пиксели*Кадры) : 0.199
Размер потока : 391 Мбайт (91%)
Библиотека кодирования : XviD 73
Аудио
Идентификатор : 1
Формат : MPEG Audio
Версия формата : Version 1
Профиль формата : Layer 3
Идентификатор кодека : 55
Идентификатор кодека/Подсказка : MP3
Продолжительность : 39 м.
Вид битрейта : Постоянный
Битрейт : 128 Кбит/сек
Каналы : 2 канала
Частота : 48,0 КГц
Метод сжатия : С потерями
Размер потока : 35,7 Мбайт (8%)
Выравнивание : Соединение по промежуткам
Продолжительность промежутка : 40 мс. (1,00 видеокадр)
Время предзагрузки промежутка : 504 мс.
Библиотека кодирования : LAME3.99r
Настройки программы : -m s -V 4 -q 0 -lowpass 17 -b 128
Скриншоты
Названия серий

001 - "Укус Куфии" (Часть 1)
002 - "Укус Куфии" (Часть 2)
003 - "Укус Куфии" (Часть 3)
004 - "Укус Куфии" (Часть 4)
005 - "Роковая страсть"
006 - "Любовь до гроба"
007 - "Доказать невозможно"
008 - "Скелет Отелло"
009 - "Нарисованные свидетели"
010 - "Английское убийство"
011 - "Автокатастрофа"
012 - "Метки"
013 - "Марка убийцы"
014 - "Бумеранг"
015 - "Таинственное исчезновение"
016 - "Частный детектив"
017 - "Я – судья"
018 - "Выстрел на охоте"
019 - "Расплата"
020 - "Запасной выход"
021 - "Атлет"
022 - "В объятиях леопарда"
023 - "Блёстки"
024 - "Программисты"
025 - "Молния"
026 - "Археолог"
027 - "Ограбление инкассаторов"
028 - "ДТП"
029 - "Капля моря"
030 - "Кара"
031 - "Зелёная радуга"
032 - "Пепел"
033 - "Секреты Светы"
034 - "Бомба замедленного действия"
035 - "Китайский ресторан"
036 - "Перстень Эссьена"
037 - "Фальшивка"
038 - "И другие родственники"
039 - "Королева красоты"
040 - "Зверство"
041 - "Паук"
042 - "СПИД"
043 - "Переводчица"
044 - "Время собирать камни"
045 - "Тугой кран"
046 - "Похищение"
047 - "Кристалл"
048 - "Школьная история"
049 - "Скромность"
050 - "Дело Круглова"
051 - "Катастрофа"
052 - "Вода"
053 - "Обручение"
054 - "Ошибка"
055 - "Слишком много убийц"
056 - "Мохнатое золото"
057 - "Светочувствительность"
058 - "Части тела"
059 - "Зачем тебе жить"
060 - "Недетская история"
061 - "Опасный поворот"
062 - "Сумерки"
063 - "Шакал"
064 - "Гемофилия"
065 - "Стрела Немезиды"
066 - "Шантаж"
067 - "Папарацци"
068 - "Фильтр"
069 - "Цена обиды"
070 - "Бита карта"
071 - "Рикошет"
072 - "Принцип матрёшки"
073 - "За отсутствием события преступления"
074 - "Роковое кольцо"
075 - "Последнее дело Майского"
076 - "Амнезия"
077 - "Косметика"
078 - "Прощание"
079 - "Гном"
080 - "Панацея"
081 - "Собачья смерть"
082 - "Тяжелый день"
083 - "8 герц"
084 - "Имитатор"
085 - "Братья"
086 - "Ювелир"
087 - "Кукольный домик"
088 - "Два в одном"
089 - "Убийство в СВ"
090 - "Лётчик"
091 - "Чёрный человек"
092 - "Любимые и любящие"
093 - "Грамотная бытовуха"
094 - "Роковой удар"
095 - "Сладкий сон"
096 - "Уран"
097 - "Самосуд"
098 - "Смерть на дороге"
099 - "Королева Марго"
100 - "Дуэль"
101 - "Смертельный эксперимент"
102 - "Вендетта"
103 - "Команда – удалить"
104 - "Похищенная"
105 - "Опасные игрушки"
106 - "Школьный учитель"
107 - "Гипноз"
108 - "Народные капиталы"
109 - "Суррогатная мать"
110 - "Золотко"
111 - "Суд"
112 - "Кровососы"
113 - "Следующая остановка – смерть"
114 - "Белорусский вокзал"
115 - "Смерть куклы"
116 - "Крот"
117 - "Музыка нас связала"
118 - "Двойной клубок"
120 - "Звонок с того света"
125 - "Смерть в подарок"
Полный список серий находится здесь
Download
Чтобы скачать .torrent файл необходима регистрация
Сайт не распространяет и не хранит электронные версии произведений, а лишь предоставляет доступ к создаваемому пользователями каталогу ссылок на торрент-файлы, которые содержат только списки хеш-сумм
[Профиль]  [ЛС] 
 

S-W-R

Стаж: 10 лет 7 месяцев

Сообщений: 365

S-W-R · 27-Окт-15 13:33 (спустя 5 месяцев 15 дней)

[Цитировать] 

А в сериях есть их порядковые №?
[Профиль]  [ЛС] 
 
Ответить
Loading...
Error