Гражданка Катерина / Серии: 1-4 из 4 (Наталья Углицких) [2015, мелодрама, DVB]

Страницы:  1

Ответить
Автор
Сообщение

dean10

Стажер-модератор

Стаж: 8 лет 10 месяцев

Сообщений: 5825

dean10 · 20-Май-15 11:02 (3 года 5 месяцев назад)

[Цитировать] 

Гражданка Катерина
Год выпуска: 2015
Производство: Россия, Кинокомпания "Элегия"
Жанр: мелодрама
Продолжительность: 01:07:02
Режиссёр: Наталья Углицких
В ролях: Валерия Ланская, Кирилл Гребенщиков, Яна Крайнова, Светлана Милованова, Валерий Новиков, Сергей Губанов, Анастасия Денисова, Рита Дьяченкова, Алеся Гузько, Егор Клинаев, Никита Тарасов, Дарья Андреева
Описание: Жительница Молдовы Катерина приезжает в Москву в надежде получить опеку над осиротевшей маленькой сестренкой. Чтобы ускорить оформление гражданства, Катерина решается на фиктивный брак. Однако узнав получше своего фиктивного мужа, Катерина влюбляется в него.

Все раздачи сериала: http://1.maintracker.org/forum/tracker.php?f=9&nm=%D0%93%D1%80%D0%B0%D0%B6%D0%B4%...0%B8%D0%BD%D0%B0
Сэмпл: http://multi-up.com/1049416
Качество: DVB
Формат: TS
Видео кодек: H.264
Аудио кодек: MP2
Видео: AVC, 720x576 (4:3), 25 fps, 3 022 kbps, 0.29 bit/pixel
Аудио: Pусский, MP2, 48 kHz, 2 ch, 192 kbps
MI
General
ID : 1 (0x1)
Complete name : C:\Гражданка Катеринa
Format : MPEG-TS
File size : 2.21 GiB
Duration : 1h 33mn
Overall bit rate mode : Variable
Overall bit rate : 3 383 Kbps
Video
ID : 204 (0xCC)
Menu ID : 2204 (0x89C)
Format : AVC
Format/Info : Advanced Video Codec
Format profile : [email protected]
Format settings, CABAC : Yes
Format settings, ReFrames : 4 frames
Codec ID : 27
Duration : 1h 33mn
Bit rate : 3 022 Kbps
Width : 720 pixels
Height : 576 pixels
Display aspect ratio : 16:9
Frame rate : 25.000 fps
Standard : Component
Color space : YUV
Chroma subsampling : 4:2:0
Bit depth : 8 bits
Scan type : Interlaced
Scan order : Top Field First
Bits/(Pixel*Frame) : 0.292
Stream size : 1.97 GiB (89%)
Color range : Limited
Color primaries : BT.601 PAL
Transfer characteristics : BT.470 System B, BT.470 System G
Matrix coefficients : BT.601
Audio
ID : 304 (0x130)
Menu ID : 2204 (0x89C)
Format : MPEG Audio
Format version : Version 1
Format profile : Layer 2
Codec ID : 3
Duration : 1h 33mn
Bit rate mode : Constant
Bit rate : 192 Kbps
Channel(s) : 2 channels
Sampling rate : 48.0 KHz
Compression mode : Lossy
Delay relative to video : -120ms
Stream size : 128 MiB (6%)
Language : Russian
Text
ID : 305 (0x131)-800
Menu ID : 2204 (0x89C)
Format : Teletext
Language : Russian
Menu
ID : 104 (0x68)
Menu ID : 2204 (0x89C)
Duration : 1h 33mn
List : 204 (0xCC) (AVC) / 304 (0x130) (MPEG Audio, Russian) / 305 (0x131) ()
Language : / Russian
Скриншоты
[Профиль]  [ЛС] 
 

bot · 08-Ноя-18 07:08 (спустя 3 года 5 месяцев)

Тема была перенесена из форума Русские сериалы в форум Архив (Русские сериалы)
Сударыня
 
 
Ответить
Loading...
Error