Адрес РуТрекера для пользователей РФ - MainTracker.org

Расскажи друзьям:  

Взять Тарантину / Серии: 1-8 из 8 (Роман Качанов) [2005, комедия, криминал, DVDRip]

Страницы:  1

Ответить
Автор
Сообщение

Сударыня

Moderator gray

Стаж: 11 лет 4 месяца

Сообщений: 11005

Сударыня · 23-Июн-15 16:50 (3 года 2 месяца назад, ред. 23-Июн-15 17:13)

Взять Тарантину


Год выпуска: 2005
Производство: «Кинопром при участии продюсерской компании Аква-Вита»
Жанр: Комедия, криминал
Продолжительность: ~44 мин.
Субтитры: Отсутствуют
Режиссер: Роман Качанов
В ролях: Петр Фёдоров, Людмила Гурченко, Богдан Ступка, Ольга Арнтгольц, Павел Деревянко, Игорь Золотовицкий, Виктор Вержбицкий, Амаду Мамадаков, Хаджидурды Нарлиев, Муканбек Токтобаев и др. ...
Описание: Двое богатых людей степных кровей Калмыкии собираются поженить своих детей. Удивлять гостей они намерены новейшим фильмом Тарантино, копию которого следует добыть до мировой премьеры. Для покупки этого фильма в Америку направляются послы от главы семейства жениха с мешком бриллиантов.
Однако, уже в Голливуде, они выясняют, что фильм им никто продавать не собирается. Возвращаться обратно без фильма не представляется возможным, и тогда во имя столь благого дела нанимаются пираты, которым и следует украсть новый фильм.
Релиз группы

Источник рипа от bazar
Все раздачи сериала
Семпл
Кинопоиск
Качество: DVDRip
Формат: AVI
Видео кодек: XviD
Аудио кодек: AC3
Видео: 704x416 (1.69:1), 25 fps, XviD build 65 ~1485 kbps avg, 0.20 bit/pixel
Аудио: 48 kHz, AC3 Dolby Digital, 2/0 (L,R) ch, ~192.00 kbps avg
MediaInfo
Код:
Общее
Полное имя                               : D:\Сериалы\Взять Тарантину\01 серия. Взять Тарантину.avi
Формат                                   : AVI
Формат/Информация                        : Audio Video Interleave
Размер файла                             : 534 Мбайт
Продолжительность                        : 44 м.
Общий поток                              : 1687 Кбит/сек
Библиотека кодирования                   : VirtualDub build 35491/release
Видео
Идентификатор                            : 0
Формат                                   : MPEG-4 Visual
Профиль формата                          : Advanced Simple@L5
Параметр BVOP формата                    : 2
Параметр QPel формата                    : Нет
Параметр GMC формата                     : Без точки перехода
Параметр матрицы формата                 : Выборочная
Идентификатор кодека                     : XVID
Идентификатор кодека/Подсказка           : XviD
Продолжительность                        : 44 м.
Битрейт                                  : 1486 Кбит/сек
Ширина                                   : 704 пикселя
Высота                                   : 416 пикселей
Соотношение сторон                       : 1,692
Частота кадров                           : 25,000 кадров/сек
Цветовое пространство                    : YUV
Субдискретизация насыщенности            : 4:2:0
Битовая глубина                          : 8 бит
Тип развёртки                            : Прогрессивная
Метод сжатия                             : С потерями
Бит/(Пиксели*Кадры)                      : 0.203
Размер потока                            : 470 Мбайт (88%)
Библиотека кодирования                   : XviD 65
Аудио
Идентификатор                            : 1
Формат                                   : AC-3
Формат/Информация                        : Audio Coding 3
Расширение режима                        : CM (complete main)
Параметр Endianness формата              : Big
Идентификатор кодека                     : 2000
Продолжительность                        : 44 м.
Вид битрейта                             : Постоянный
Битрейт                                  : 192 Кбит/сек
Каналы                                   : 2 канала
Расположение каналов                     : Front: L R
Частота                                  : 48,0 КГц
Битовая глубина                          : 16 бит
Метод сжатия                             : С потерями
Размер потока                            : 60,7 Мбайт (11%)
Выравнивание                             : Соединение по промежуткам
Продолжительность промежутка             : 40  мс. (1,00 видеокадр)
Время предзагрузки промежутка            : 512  мс.
Скриншоты
Download
Чтобы скачать .torrent файл необходима регистрация
Сайт не распространяет и не хранит электронные версии произведений, а лишь предоставляет доступ к создаваемому пользователями каталогу ссылок на торрент-файлы, которые содержат только списки хеш-сумм
[Профиль]  [ЛС] 
 

Encsicora

Стаж: 4 года 6 месяцев

Сообщений: 1


Encsicora · 08-Фев-18 22:18 (спустя 2 года 7 месяцев)

[Цитировать] 

Отличный сериал. Гурченко бесподобна)
[Профиль]  [ЛС] 

fx66

Стаж: 8 лет 1 месяц

Сообщений: 4

fx66 · 11-Июл-18 22:14 (спустя 5 месяцев 2 дня, ред. 11-Июл-18 22:14)

[Цитировать] 

У кого есть, дайте скачать пожалуйста.
Скачал. СПс.
[Профиль]  [ЛС] 
 
Ответить
Loading...
Error