Адрес РуТрекера для пользователей РФ - MainTracker.org

Расскажи друзьям:  

МУР есть МУР / Сезон: 1-3 / Серии: 1-24 из 24 (Дмитрий Брусникин) [2004-2005, криминал, DVDRip]

Страницы:  1

Ответить
Автор
Сообщение

Сударыня

Moderator gray

Стаж: 11 лет 4 месяца

Сообщений: 11005

Сударыня · 09-Авг-15 09:41 (3 года 1 месяц назад, ред. 09-Авг-15 11:18)

МУР есть МУР
Год выпуска: 2004-2005
Производство: «МакДос»
Жанр: Криминал
Продолжительность: 1 сезон - 8 серий ~52 мин., 2 сезон - 8 серий ~45 мин., 3 сезон - 8 серий ~45 мин.
Субтитры: Отсутствуют
Режиссер: Дмитрий Брусникин
Релиз группы


Источник рипа от Snaps 77
Все раздачи сериала
Как закачать отдельный файл из торрента или докачать ранее пропущенные файлы торрента.

МУР есть МУР-1
МУР есть МУР-1

В ролях: Евгений Сидихин, Эдуард Чекмазов, Валерий Трошин, Елена Панова, Сергей Юшкевич, Виталий Егоров, Александр Ф. Скляр, Александр Мохов, Николай Чиндяйкин, Евгений Крайнов, Николай Волков-младший, Марина Полицеймако, Полина Сидихина, Александр Семчев, Игорь Арташонов, Денис Ясик и др. ...
Описание:1953 год. После смерти Сталина работы в МУРе прибавилось. Наступила новая эпоха - сотни уголовников были выпущены на волю. Дух вседозволенности прокатился по Москве. У Александра Ивановича Смирнова, начальника оперативной группы первого отдела МУРа, дел невпроворот - каждый день в городе происходят новые убийства и грабежи.
Экранизация романа Анатолия Степанова "Заботы пятьдесят третьего".
Семпл
Качество: DVDRip
Формат: AVI
Видео кодек: XviD
Аудио кодек: MP3
Видео: 640x480 (1.33:1), 25 fps, XviD build 65 ~1204 kbps avg, 0.16 bit/pixel
Аудио: 48 kHz, MPEG Layer 3, 2 ch, ~192.00 kbps avg
MediaInfo
Код:
Общее
Полное имя                               : D:\Сериалы\МУР есть МУР\МУР есть МУР\01 серия. МУР есть МУР.avi
Формат                                   : AVI
Формат/Информация                        : Audio Video Interleave
Размер файла                             : 523 Мбайт
Продолжительность                        : 52 м.
Общий поток                              : 1407 Кбит/сек
Библиотека кодирования                   : VirtualDub build 35576/release
Видео
Идентификатор                            : 0
Формат                                   : MPEG-4 Visual
Профиль формата                          : Advanced Simple@L5
Параметр BVOP формата                    : 2
Параметр QPel формата                    : Нет
Параметр GMC формата                     : Без точки перехода
Параметр матрицы формата                 : Выборочная
Идентификатор кодека                     : XVID
Идентификатор кодека/Подсказка           : XviD
Продолжительность                        : 52 м.
Битрейт                                  : 1205 Кбит/сек
Ширина                                   : 640 пикселей
Высота                                   : 480 пикселей
Соотношение сторон                       : 4:3
Частота кадров                           : 25,000 кадров/сек
Цветовое пространство                    : YUV
Субдискретизация насыщенности            : 4:2:0
Битовая глубина                          : 8 бит
Тип развёртки                            : Прогрессивная
Метод сжатия                             : С потерями
Бит/(Пиксели*Кадры)                      : 0.157
Размер потока                            : 448 Мбайт (86%)
Библиотека кодирования                   : XviD 65
Аудио
Идентификатор                            : 1
Формат                                   : MPEG Audio
Версия формата                           : Version 1
Профиль формата                          : Layer 3
Режим                                    : Joint stereo
Расширение режима                        : MS Stereo
Идентификатор кодека                     : 55
Идентификатор кодека/Подсказка           : MP3
Продолжительность                        : 52 м.
Вид битрейта                             : Постоянный
Битрейт                                  : 192 Кбит/сек
Каналы                                   : 2 канала
Частота                                  : 48,0 КГц
Метод сжатия                             : С потерями
Размер потока                            : 71,4 Мбайт (14%)
Выравнивание                             : Разделение по промежуткам
Продолжительность промежутка             : 40  мс. (1,00 видеокадр)
Время предзагрузки промежутка            : 500  мс.
Библиотека кодирования                   : LAME3.98.2
Скриншоты
МУР есть МУР-2
МУР есть МУР-2

В ролях: Евгений Сидихин, Эдуард Чекмазов, Наталья Рогожкина, Сергей Колесников, Владимир Хлевинский, Алексей Черных, Василий Мищенко, Владимир Николенко, Юрий Павлов, Николай Юшкевич, Владимир Тимофеев, Василий Фунтиков, Павел Сиротин, Юрий Горобец, Елена Панова, Сергей Сазонтьев, Юлия Чебакова, Ольга Карпович (Буракова), Игорь Арташонов и др. ...
Описание: 1969 год. Смирнов едет в отпуск в Алтайский край к своему приятелю Роме Казаряну — бывшему оперуполномоченному МУРа, а ныне известному кинорежиссеру, снимающему там фильм. Но и здесь нет сыщику отдыха от службы: секретарь райкома просит его помочь раскрыть убийство бывшего лагерного надсмотрщика...
Экранизация романа Анатолия Степанова "Деревянный самовар" ("Пьянки шестьдесят девятого года")
Семпл
Качество: DVDRip
Формат: AVI
Видео кодек: XviD
Аудио кодек: MP3
Видео: 640x480 (1.33:1), 25 fps, XviD build 65 ~1219 kbps avg, 0.16 bit/pixel
Аудио: 48 kHz, MPEG Layer 3, 2 ch, ~192.00 kbps avg
MediaInfo
Код:
Общее
Полное имя                               : D:\Сериалы\МУР есть МУР\МУР есть МУР-2\01 серия. МУР есть МУР-2.avi
Формат                                   : AVI
Формат/Информация                        : Audio Video Interleave
Размер файла                             : 468 Мбайт
Продолжительность                        : 46 м.
Общий поток                              : 1422 Кбит/сек
Библиотека кодирования                   : VirtualDub build 35576/release
Видео
Идентификатор                            : 0
Формат                                   : MPEG-4 Visual
Профиль формата                          : Advanced Simple@L5
Параметр BVOP формата                    : 2
Параметр QPel формата                    : Нет
Параметр GMC формата                     : Без точки перехода
Параметр матрицы формата                 : Выборочная
Идентификатор кодека                     : XVID
Идентификатор кодека/Подсказка           : XviD
Продолжительность                        : 46 м.
Битрейт                                  : 1220 Кбит/сек
Ширина                                   : 640 пикселей
Высота                                   : 480 пикселей
Соотношение сторон                       : 4:3
Частота кадров                           : 25,000 кадров/сек
Цветовое пространство                    : YUV
Субдискретизация насыщенности            : 4:2:0
Битовая глубина                          : 8 бит
Тип развёртки                            : Прогрессивная
Метод сжатия                             : С потерями
Бит/(Пиксели*Кадры)                      : 0.159
Размер потока                            : 401 Мбайт (86%)
Библиотека кодирования                   : XviD 65
Аудио
Идентификатор                            : 1
Формат                                   : MPEG Audio
Версия формата                           : Version 1
Профиль формата                          : Layer 3
Режим                                    : Joint stereo
Расширение режима                        : MS Stereo
Идентификатор кодека                     : 55
Идентификатор кодека/Подсказка           : MP3
Продолжительность                        : 46 м.
Вид битрейта                             : Постоянный
Битрейт                                  : 192 Кбит/сек
Каналы                                   : 2 канала
Частота                                  : 48,0 КГц
Метод сжатия                             : С потерями
Размер потока                            : 63,2 Мбайт (14%)
Выравнивание                             : Разделение по промежуткам
Продолжительность промежутка             : 40  мс. (1,00 видеокадр)
Время предзагрузки промежутка            : 500  мс.
Скриншоты
МУР есть МУР-3
МУР есть МУР-3

В ролях: Евгения Сидихин, Эдуард Чекмазов, Виталий Егоров, Маргарита Шубина, Дарья Калмыкова, Валерий Трошин, Елена Панова, Юрий Шерстнёв, Грегори-Саид Багов, Александр Мохов, Павел Белозёров, Александр Фастовский, Павел Ващилин, Эдуард Флёров и др. ...
Описание: Знаменитый муровец Александр Смирнов вышел на пенсию и уже несколько лет живет вместе с женой в Крыму. Спокойная жизнь приходится Смирнову не по нутру, и он отправляется в Москву к давнишним друзьям: Роме Казаряну и Альке Спиридонову. Но и там он вновь ввязывается в весьма подозрительное дело...
Вторая экранизация романа Анатолия Степанова "Привал странников"
Семпл
Качество: DVDRip
Формат: AVI
Видео кодек: XviD
Аудио кодек: MP3
Видео: 640x480 (1.33:1), 25 fps, XviD build 65 ~1227 kbps avg, 0.16 bit/pixel
Аудио: 48 kHz, MPEG Layer 3, 2 ch, ~192.00 kbps avg
MediaInfo
Код:
Общее
Полное имя                               : D:\Сериалы\МУР есть МУР\МУР есть МУР-3\01 серия. МУР есть МУР-3.avi
Формат                                   : AVI
Формат/Информация                        : Audio Video Interleave
Размер файла                             : 473 Мбайт
Продолжительность                        : 46 м.
Общий поток                              : 1429 Кбит/сек
Библиотека кодирования                   : VirtualDub build 35576/release
Видео
Идентификатор                            : 0
Формат                                   : MPEG-4 Visual
Профиль формата                          : Advanced Simple@L5
Параметр BVOP формата                    : 2
Параметр QPel формата                    : Нет
Параметр GMC формата                     : Без точки перехода
Параметр матрицы формата                 : Выборочная
Идентификатор кодека                     : XVID
Идентификатор кодека/Подсказка           : XviD
Продолжительность                        : 46 м.
Битрейт                                  : 1227 Кбит/сек
Ширина                                   : 640 пикселей
Высота                                   : 480 пикселей
Соотношение сторон                       : 4:3
Частота кадров                           : 25,000 кадров/сек
Цветовое пространство                    : YUV
Субдискретизация насыщенности            : 4:2:0
Битовая глубина                          : 8 бит
Тип развёртки                            : Прогрессивная
Метод сжатия                             : С потерями
Бит/(Пиксели*Кадры)                      : 0.160
Размер потока                            : 406 Мбайт (86%)
Библиотека кодирования                   : XviD 65
Аудио
Идентификатор                            : 1
Формат                                   : MPEG Audio
Версия формата                           : Version 1
Профиль формата                          : Layer 3
Режим                                    : Joint stereo
Расширение режима                        : MS Stereo
Идентификатор кодека                     : 55
Идентификатор кодека/Подсказка           : MP3
Продолжительность                        : 46 м.
Вид битрейта                             : Постоянный
Битрейт                                  : 192 Кбит/сек
Каналы                                   : 2 канала
Частота                                  : 48,0 КГц
Метод сжатия                             : С потерями
Размер потока                            : 63,5 Мбайт (13%)
Выравнивание                             : Разделение по промежуткам
Продолжительность промежутка             : 40  мс. (1,00 видеокадр)
Время предзагрузки промежутка            : 500  мс.
Скриншоты
Download
Чтобы скачать .torrent файл необходима регистрация
Сайт не распространяет и не хранит электронные версии произведений, а лишь предоставляет доступ к создаваемому пользователями каталогу ссылок на торрент-файлы, которые содержат только списки хеш-сумм
[Профиль]  [ЛС] 
 

intrusov

Стаж: 7 лет 8 месяцев

Сообщений: 26

intrusov · 18-Окт-16 18:15 (спустя 1 год 2 месяца)

[Цитировать] 

Добрый вечер. А что никому не интересно? Качаем или...))
[Профиль]  [ЛС] 

Сударыня

Moderator gray

Стаж: 11 лет 4 месяца

Сообщений: 11005

Сударыня · 04-Июн-17 11:17 (спустя 7 месяцев)

[Цитировать] 

larianna писал(а):
73236867Большое спасибо за раздачу!
Пожалуйста и приятного просмотра.
[Профиль]  [ЛС] 

Igor1948

Стаж: 7 лет 10 месяцев

Сообщений: 318

Igor1948 · 31-Авг-17 08:35 (спустя 2 месяца 26 дней)

[Цитировать] 

Сударыня
[Профиль]  [ЛС] 

Сударыня

Moderator gray

Стаж: 11 лет 4 месяца

Сообщений: 11005

Сударыня · 31-Авг-17 08:54 (спустя 18 мин.)

[Цитировать] 

Igor1948 писал(а):
73758193Сударыня
Пожалуйста и приятного просмотра
[Профиль]  [ЛС] 

VintWolf

Стаж: 10 лет 4 месяца

Сообщений: 608

VintWolf · 11-Июл-18 16:41 (спустя 10 месяцев)

[Цитировать] 

хороший сериал, с удовольствием ещё раз посмотрю.
[Профиль]  [ЛС] 
 
Ответить
Loading...
Error