Адрес РуТрекера для пользователей РФ - 11.MainTracker.org

Расскажи друзьям:  

Спасти или уничтожить / Серии: 1-4 из 4 / (Владимир Фатьянов) [2013, Военный, приключения, WEBRip]

Страницы:  1

Ответить
Автор
Сообщение

drakula05

RG Русские сериалы

Стаж: 11 лет 1 месяц

Сообщений: 649

drakula05 · 14-Сен-15 04:48 (3 года 3 месяца назад, ред. 14-Сен-15 04:50)

Спасти или уничтожить

Производство: "PRO.TV"
Год выпуска: 2013
Жанр: военный фильм, приключения
Продолжительность: 50 мин.
Субтитры: нет
Режиссёр: Владимир Фатьянов
В ролях: Никита Зверев, Анна Снаткина, Борис Полунин, Матвей Шкуратов, Евгений Пацино, Вадим Колганов, Евгений Бахар, Игорь Злотников, Виктор Бабак, Антон Старовойтов, Кирилл Захаров, Юрий Вутто, Сергей Новицкий, Сергей Широчин, Анатолий Гурьев
Описание: Дело начинается в 1941-м году. По поручению Сталина создается специальная группа разведчиков особой секретности. Участники группы - хорошо тренированные военнослужащие, которые не знают страха, преданные Родине и высшему руководству. Их первое задание подготовил сам Сталин. По его приказу группа должна пробраться в тыл врага и разыскать Якова Джугашвили, который, вероятно, находился в плену. Как оказалось позже Яков - старший сын Сталина. Перед членами группы стоит нелегкая задача. Отказ или неповиновение карается смертью. Никто точно не знает, жив ли Яков, или нет. Возникает множество вопросов по ходу операции...
Доп. информация: Релиз группа
Все раздачи сериала
Сэмпл
Качество: WEBRip
Формат: AVI
Видео кодек: XviD
Аудио кодек: AC3
Видео: 720x400 (1.80:1), 25 fps, XviD build 73 ~1548 kbps avg, 0.22 bit/pixel
Аудио: 48 kHz, AC3 Dolby Digital, 2/0 (L,R) ch, ~192.00 kbps avg
MI
General
Complete name : Y:\раздачи\Spasti.ili.ynistozit..2013.WEB-DLRip.RG.Russkie.serialy.&.Files-x\03.Spasti.ili.ynistozit..2013.WEB-DLRip.RG.Russkie.serialy.&.Files-x.avi
Format : AVI
Format/Info : Audio Video Interleave
File size : 650 MiB
Duration : 50mn 46s
Overall bit rate : 1 789 Kbps
Writing application : VirtualDubMod 1.5.10.3 | www.virtualdub-fr.org || (build 2550/release)
Writing library : VirtualDubMod build 2550/release
Video
ID : 0
Format : MPEG-4 Visual
Format profile : Advanced [email protected]
Format settings, BVOP : 1
Format settings, QPel : No
Format settings, GMC : No warppoints
Format settings, Matrix : Custom
Codec ID : XVID
Codec ID/Hint : XviD
Duration : 50mn 46s
Bit rate : 1 587 Kbps
Width : 720 pixels
Height : 400 pixels
Display aspect ratio : 16:9
Frame rate : 25.000 fps
Color space : YUV
Chroma subsampling : 4:2:0
Bit depth : 8 bits
Scan type : Progressive
Compression mode : Lossy
Bits/(Pixel*Frame) : 0.220
Stream size : 576 MiB (89%)
Writing library : XviD 73
Audio
ID : 1
Format : AC-3
Format/Info : Audio Coding 3
Mode extension : CM (complete main)
Format settings, Endianness : Big
Codec ID : 2000
Duration : 50mn 46s
Bit rate mode : Constant
Bit rate : 192 Kbps
Channel(s) : 2 channels
Channel positions : Front: L R
Sampling rate : 48.0 KHz
Compression mode : Lossy
Stream size : 69.7 MiB (11%)
Alignment : Split accross interleaves
Interleave, duration : 40 ms (1.00 video frame)
Interleave, preload duratio : 500 ms
Скриншоты
Сравнение с сатрипом
Download
Чтобы скачать .torrent файл необходима регистрация
Сайт не распространяет и не хранит электронные версии произведений, а лишь предоставляет доступ к создаваемому пользователями каталогу ссылок на торрент-файлы, которые содержат только списки хеш-сумм
[Профиль]  [ЛС] 
 

Kotosharik

Стаж: 11 лет 2 месяца

Сообщений: 2


Kotosharik · 23-Сен-15 16:50 (спустя 9 дней)

[Цитировать] 

Спасибо. Многие моменты сериала наивны, но смотрится все на одном дыхании.
[Профиль]  [ЛС] 

cekaspekas

Стаж: 3 года 7 месяцев

Сообщений: 189


cekaspekas · 30-Сен-15 10:11 (спустя 6 дней)

[Цитировать] 

Давненько я такого бреда не скачивал... уж не говоря, про бездарную, отвратительную режиссуру.
[Профиль]  [ЛС] 

aloiz11

Стаж: 3 года 1 месяц

Сообщений: 25


aloiz11 · 06-Фев-16 18:45 (спустя 4 месяца 6 дней)

[Цитировать] 

Спасибо . Нашёл качественную работу ! Все остальные непонятно отчего - картинка замыленная ..мягко сказать . Спасибо.
Цитата:
68738183Спасти или уничтожить / Серии: 1-4 из 4 / (Владимир Фатьянов) [2013, Военный, приключения, WEBRip]
[Профиль]  [ЛС] 

Сто первый

Стаж: 11 лет 10 месяцев

Сообщений: 2

Сто первый · 11-Окт-18 12:19 (спустя 2 года 8 месяцев)

[Цитировать] 

Мне понравилось. Драматургия - на уровне. А если правду снимать - то кино не получится.
[Профиль]  [ЛС] 
 
Ответить
Loading...
Error