Адрес РуТрекера для пользователей РФ - 11.MainTracker.org

Расскажи друзьям:  

Творческий вечер Виктора Шендеровича в клубе «Китайский Лётчик Джао Да». Новое и лучшее из старого... [2013, творческий вечер, DVB]

Страницы:  1

Ответить
Автор
Сообщение

Василий Задов

RG Мультфильмы

Стаж: 11 лет 7 месяцев

Сообщений: 3528

Василий Задов · 02-Янв-16 22:10 (3 года 6 месяцев назад, ред. 07-Окт-18 14:40)

Творческий вечер Виктора Шендеровича
Новое и лучшее из старого...
Год выпуска: 2013
Страна: Россия
Жанр: творческий вечер
Продолжительность: 01:36:02
Телеканал: Совершенно секретно
Описание: Творческий вечер по случаю выхода новой книги писателя «Изюм из булки», прошедший 12 сентября 2013 года в клубе «Китайский Лётчик Джао Да».
Качество: DVB
Формат: MPG
Видео кодек: MPEG2
Аудио кодек: MP2
Видео: MPEG2 Video 720x576 (4:3) 25fps 2038kbps
Аудио: MPEG Audio 48000Hz stereo 192kbps
Скриншоты
Подробные технические данные
General
Complete name : Творческий вечер Виктора Шендеровича - Новое и лучшее из старого... (2013) [Совершенно секретно].mpg
Format : MPEG-PS
File size : 1.53 GiB
Duration : 1h 36mn
Overall bit rate mode : Variable
Overall bit rate : 2 275 Kbps
Writing library : (dvd5: Oct 27 2015)
Video
ID : 224 (0xE0)
Format : MPEG Video
Format version : Version 2
Format profile : [email protected]
Format settings, BVOP : Yes
Format settings, Matrix : Custom
Format settings, GOP : Variable
Format settings, picture struc : Frame
Duration : 1h 36mn
Bit rate mode : Variable
Bit rate : 2 038 Kbps
Maximum bit rate : 15.0 Mbps
Width : 720 pixels
Height : 576 pixels
Display aspect ratio : 4:3
Frame rate : 25.000 fps
Standard : PAL
Color space : YUV
Chroma subsampling : 4:2:0
Bit depth : 8 bits
Scan type : Interlaced
Scan order : Top Field First
Compression mode : Lossy
Bits/(Pixel*Frame) : 0.197
Time code of first frame : 00:00:00:00
Time code source : Group of pictures header
GOP, Open/Closed : Open
Stream size : 1.37 GiB (90%)
Writing library : (dvd5: Oct 27 2015)
Audio
ID : 192 (0xC0)
Format : MPEG Audio
Format version : Version 1
Format profile : Layer 2
Duration : 1h 36mn
Bit rate mode : Constant
Bit rate : 192 Kbps
Channel(s) : 2 channels
Sampling rate : 48.0 KHz
Compression mode : Lossy
Delay relative to video : -40ms
Stream size : 132 MiB (8%)
Download
Чтобы скачать .torrent файл необходима регистрация
Сайт не распространяет и не хранит электронные версии произведений, а лишь предоставляет доступ к создаваемому пользователями каталогу ссылок на торрент-файлы, которые содержат только списки хеш-сумм
[Профиль]  [ЛС] 
 

Василий Задов

RG Мультфильмы

Стаж: 11 лет 7 месяцев

Сообщений: 3528

Василий Задов · 05-Янв-16 16:42 (спустя 2 дня 18 часов, ред. 04-Окт-16 19:14)

Сравнение с предыдущей раздачей: http://screenshotcomparison.com/comparison/156880.
[Профиль]  [ЛС] 
 
Ответить
Loading...
Error