Адрес РуТрекера для пользователей РФ - MainTracker.org

Расскажи друзьям:  

Деффчонки / Сезон: 5 / Серии: 01-21 из 21 (Сергей Корягин, Ольга Френкель, Нигина Сайфуллаева) [2015, Ситком, WEBRip]

Страницы:  1

Ответить
Автор
Сообщение

ivandubskoj

Top Seed 03* 160r

Стаж: 7 лет 6 месяцев

Сообщений: 690

ivandubskoj · 27-Янв-16 08:58 (2 года 2 месяца назад, ред. 27-Янв-16 09:00)

Деффчонки
Год выпуска: 2015
Производство: Россия / Киноконцерн "Косфильм"
Жанр: Комедия, ситком
Продолжительность: ~ 00:24:00 / Серия
Субтитры: Нет
Режиссёр: Сергей Корягин, Ольга Френкель, Нигина Сайфуллаева
В ролях: Галина Боб, Анастасия Денисова, Полина Максимова, Таисия Вилкова, Родион Юрин, Наталья Унгард, Александр Серов, Алексей Воробьев, Тимур Боканча, Софья Урицкая, Александр Касаткин
Описание: Героини «Деффчонок» - четыре подруги: мечтательная неудачница Маша, ее 16-летняя сестра Василиса, очкастый офисный планктон Катя и профессиональная блондинка Леля. Каждая хочет от жизни своего: успешной карьеры, правильного замужества, вселенской популярности...Способов стать счастливой миллион! Одна беда - в жизни все гораздо сложнее, чем в мечтах. Если ты попала на прослушивание к крутому продюсеру, это еще не значит, что тебя сделают звездой. Если заклеила депутата с Рублевки - далеко не факт, что он не слиняет от тебя в Лондон. Бурные ночи с поп-идолом еще не дают гарантии, что он захочет на тебе жениться. А когда ты влюбляешься в начальника, будь готова к тому, что он начнет играть твоими чувствами ради бизнеса.Сложность еще и в том, что подруги снимают одну на всех квартиру. Ведь все они приехали из Саратова, и родственников в столице у них нет. Жить вчетвером в одном шалаше - вот настоящая беда, в которой познаются друзья. Или это счастье, а не беда вовсе? Ответ на этот и еще 999 вопросов предстоит найти нашим героиням.
Качество: WEBRip
Формат: AVI
Видео кодек: XviD
Аудио кодек: MP3
Видео: XviD, 704x400 (16:9), ~ 1900 Кбит/с, 25 кадр/с, 0.274 bit/pixel
Аудио: Русский, MP3, 48000 Гц, 128 Кбит/с, 2 канала (Стерео)
Сторонняя реклама в видеоряде - отсутствует!
Все раздачи сериала
Автор рипа - ivandubskoj
MI
General
Complete name : Deffchonki.s05.e01.WEB-DLRip.avi
Format : AVI
Format/Info : Audio Video Interleave
File size : 351 MiB
Duration : 23mn 40s
Overall bit rate : 2 070 Kbps
Writing application : VirtualDubMod 1.5.10.3 | www.virtualdub-fr.org || (build 2550/release)
Writing library : VirtualDubMod build 2550/release
Video
ID : 0
Format : MPEG-4 Visual
Format profile : Advanced Simple@L5
Format settings, BVOP : 1
Format settings, QPel : No
Format settings, GMC : No warppoints
Format settings, Matrix : Custom
Codec ID : XVID
Codec ID/Hint : XviD
Duration : 23mn 40s
Bit rate : 1 932 Kbps
Width : 704 pixels
Height : 400 pixels
Display aspect ratio : 16:9
Frame rate : 25.000 fps
Color space : YUV
Chroma subsampling : 4:2:0
Bit depth : 8 bits
Scan type : Progressive
Compression mode : Lossy
Bits/(Pixel*Frame) : 0.274
Stream size : 327 MiB (93%)
Writing library : XviD 73
Audio
ID : 1
Format : MPEG Audio
Format version : Version 1
Format profile : Layer 3
Codec ID : 55
Codec ID/Hint : MP3
Duration : 23mn 40s
Bit rate mode : Constant
Bit rate : 128 Kbps
Channel(s) : 2 channels
Sampling rate : 48.0 KHz
Compression mode : Lossy
Stream size : 21.7 MiB (6%)
Alignment : Aligned on interleaves
Interleave, duration : 40 ms (1.00 video frame)
Interleave, preload duration : 504 ms
Writing library : LAME3.99r
Encoding settings : -m s -V 4 -q 2 -lowpass 17 -b 128
Скриншоты
Download
Чтобы скачать .torrent файл необходима регистрация
Сайт не распространяет и не хранит электронные версии произведений, а лишь предоставляет доступ к создаваемому пользователями каталогу ссылок на торрент-файлы, которые содержат только списки хеш-сумм
[Профиль]  [ЛС] 
 

voronawer

Стаж: 8 лет 4 месяца

Сообщений: 35

voronawer · 13-Июл-17 21:57 (спустя 1 год 5 месяцев)

[Цитировать] 

здравствуйте! Подскажите, пожалуйста - где можно скачать предыдущие 4 сезона?
[Профиль]  [ЛС] 

zazazabest

Стаж: 8 лет 1 месяц

Сообщений: 16

zazazabest · 13-Янв-18 02:23 (спустя 5 месяцев)

[Цитировать] 

voronawer писал(а):
73456722здравствуйте! Подскажите, пожалуйста - где можно скачать предыдущие 4 сезона?
Например, на rutor(.)info и на nnmclub(.)to есть
[Профиль]  [ЛС] 
 
Ответить
Loading...
Error