Адрес РуТрекера для пользователей РФ - MainTracker.org

Расскажи друзьям:  

Интерны / Сезон: 1, 7-10, 14 / Полное обследование (Максим Пежемский, Дина Штурманова) [2010-2016, Комедия, ситком, SATRip - AVC]

Страницы:  1

Ответить
Автор
Сообщение

Doc66

RG Русские сериалы

Стаж: 11 лет 8 месяцев

Сообщений: 3403

Doc66 · 28-Янв-16 14:47 (2 года 3 месяца назад, ред. 27-Фев-16 01:41)

Интерны Год выпуска: 2010-2016
Производство: Россия, ТНТ
Жанр: Комедия, ситком
Продолжительность: ~00:25:00
Режиссёр: Максим Пежемский, Дина Штурманова
В ролях: Иван Охлобыстин, Илья Глинников, Вадим Демчог, Светлана Камынина, Юлия Назаренко-Благая, Один Ланд Байрон, Светлана Пермякова, Александр Ляпин, Аглая Тарасова, Яна Гурьянова, Азамат Мусагалиев
Описание: Сериал посвящён работе молодых неопытных интернов, постоянно попадающих в смешные и нелепые ситуации. Их руководитель — заведующий терапевтическим отделением Андрей Евгеньевич Быков — постоянно над ними подшучивает. Помогают Быкову и наблюдают за приключениями интернов его друг — заведующий кожно-венерологическим отделением Иван Натанович Купитман и старшая медсестра терапевтического отделения Любовь Михайловна Скрябина (некоторое время — Маргарита Павловна Королёва). Наводит порядок в больнице главврач Анастасия Константиновна Кисегач.
Все раздачи сериала

Качество: SATRip - AVC
Формат: MKV
Видео кодек: H.264
Аудио кодек: AC3
Сезон 1. Серии 001-020
Видео: AVC at 1162 Кбит/сек Aspect : 720 x 412 (1.748) at 25.000 fps
Аудио: AC-3 at 192 Кбит/сек Infos : 2 канала, 48,0 КГц
MI
Общее
Уникальный идентификатор : 187232436171794713320313285655516126996 (0x8CDBA7D15D0CCE93923C86B86CE39F14)
Полное имя : E:\kodirovany\Интерны.SATRip.AVC.RG Русские сериалы\Интерны. 01 Сезон.DVDRip.AVC.Doc66\s01e01.mkv
Формат : Matroska
Версия формата : Version 2
Размер файла : 249 Мбайт
Продолжительность : 25 м.
Общий поток : 1382 Кбит/сек
Название фильма : Интерны - 001 серия. DVDRip (AVC) by Doc66
Дата кодирования : UTC 2016-02-01 22:27:38
Программа кодирования : mkvmerge v5.8.0 ('No Sleep / Pillow') built on Sep 2 2012 15:37:04
Библиотека кодирования : libebml v1.2.3 + libmatroska v1.3.0
Видео
Идентификатор : 1
Формат : AVC
Формат/Информация : Advanced Video Codec
Профиль формата : High@L3.1
Параметр CABAC формата : Да
Параметр ReFrames формата : 8 кадров
Идентификатор кодека : V_MPEG4/ISO/AVC
Продолжительность : 25 м.
Битрейт : 1162 Кбит/сек
Ширина : 720 пикселей
Высота : 412 пикселей
Соотношение сторон : 16:9
Режим частоты кадров : Постоянный
Частота кадров : 25,000 кадров/сек
Цветовое пространство : YUV
Субдискретизация насыщенности : 4:2:0
Битовая глубина : 8 бит
Тип развёртки : Прогрессивная
Бит/(Пиксели*Кадры) : 0.157
Размер потока : 209 Мбайт (84%)
Библиотека кодирования : x264 core 130 r2273 b3065e6
Настройки программы : cabac=1 / ref=8 / deblock=1:-2:-1 / analyse=0x3:0x113 / me=umh / subme=9 / psy=1 / psy_rd=1.00:0.15 / mixed_ref=1 / me_range=24 / chroma_me=1 / trellis=2 / 8x8dct=1 / cqm=0 / deadzone=21,11 / fast_pskip=1 / chroma_qp_offset=-3 / threads=6 / lookahead_threads=1 / sliced_threads=0 / nr=0 / decimate=1 / interlaced=0 / bluray_compat=0 / constrained_intra=0 / bframes=8 / b_pyramid=2 / b_adapt=2 / b_bias=0 / direct=1 / weightb=1 / open_gop=0 / weightp=2 / keyint=250 / keyint_min=25 / scenecut=40 / intra_refresh=0 / rc=crf / mbtree=0 / crf=18.0 / qcomp=0.60 / qpmin=0 / qpmax=69 / qpstep=4 / ip_ratio=1.40 / pb_ratio=1.30 / aq=2:0.70
Default : Да
Forced : Нет
Аудио
Идентификатор : 2
Формат : AC-3
Формат/Информация : Audio Coding 3
Расширение режима : CM (complete main)
Параметр Endianness формата : Big
Идентификатор кодека : A_AC3
Продолжительность : 25 м.
Вид битрейта : Постоянный
Битрейт : 192 Кбит/сек
Каналы : 2 канала
Расположение каналов : Front: L R
Частота : 48,0 КГц
Метод сжатия : С потерями
Размер потока : 34,6 Мбайт (14%)
Default : Да
Forced : Нет
Сезон 7. Серии 121-140
Видео: AVC at 1073 Кбит/сек Aspect : 712 x 432 (1.757)@768 x 432 at 25.000 fps
Аудио: AC-3 at 192 Кбит/сек Infos : 2 канала, 48,0 КГц
MI
Общее
Уникальный идентификатор : 226357029558566137563590608072963589057 (0xAA4AC733D9F2877D93A7FDA5F10503C1)
Полное имя : E:\kodirovany\Интерны.SATRip.AVC.RG Русские сериалы\Интерны. 07 Сезон.SATRip.AVC.Doc66\Интерны - 121 серия.mkv
Формат : Matroska
Версия формата : Version 2
Размер файла : 215 Мбайт
Продолжительность : 23 м.
Общий поток : 1291 Кбит/сек
Название фильма : Интерны - 121 серия. SATRip (AVC) by Doc66
Дата кодирования : UTC 2013-09-14 10:39:00
Программа кодирования : mkvmerge v5.8.0 ('No Sleep / Pillow') built on Sep 2 2012 15:37:04
Библиотека кодирования : libebml v1.2.3 + libmatroska v1.3.0
Видео
Идентификатор : 1
Формат : AVC
Формат/Информация : Advanced Video Codec
Профиль формата : High@L3.1
Параметр CABAC формата : Да
Параметр ReFrames формата : 8 кадров
Идентификатор кодека : V_MPEG4/ISO/AVC
Продолжительность : 23 м.
Битрейт : 1073 Кбит/сек
Ширина : 712 пикселей
Высота : 432 пикселя
Соотношение сторон : 16:9
Соотношение сторон в оригинале : 16:9
Режим частоты кадров : Постоянный
Частота кадров : 25,000 кадров/сек
Цветовое пространство : YUV
Субдискретизация насыщенности : 4:2:0
Битовая глубина : 8 бит
Тип развёртки : Прогрессивная
Бит/(Пиксели*Кадры) : 0.140
Размер потока : 179 Мбайт (83%)
Библиотека кодирования : x264 core 132 r2310 76a5c3a
Настройки программы : cabac=1 / ref=8 / deblock=1:-2:-1 / analyse=0x3:0x113 / me=umh / subme=9 / psy=1 / psy_rd=1.00:0.15 / mixed_ref=1 / me_range=24 / chroma_me=1 / trellis=2 / 8x8dct=1 / cqm=0 / deadzone=21,11 / fast_pskip=1 / chroma_qp_offset=-3 / threads=6 / lookahead_threads=1 / sliced_threads=0 / nr=0 / decimate=1 / interlaced=0 / bluray_compat=0 / constrained_intra=0 / bframes=8 / b_pyramid=2 / b_adapt=2 / b_bias=0 / direct=1 / weightb=1 / open_gop=0 / weightp=2 / keyint=250 / keyint_min=25 / scenecut=40 / intra_refresh=0 / rc=crf / mbtree=0 / crf=19.0 / qcomp=0.60 / qpmin=0 / qpmax=69 / qpstep=4 / ip_ratio=1.40 / pb_ratio=1.30 / aq=2:0.70
Язык : Russian
Default : Да
Forced : Нет
Цветовой диапазон : Limited
Основные цвета : BT.601 PAL
Характеристики трансфера : BT.470 System B, BT.470 System G
Коэффициенты матрицы : BT.601
Аудио
Идентификатор : 2
Формат : AC-3
Формат/Информация : Audio Coding 3
Расширение режима : CM (complete main)
Параметр Endianness формата : Big
Идентификатор кодека : A_AC3
Продолжительность : 23 м.
Вид битрейта : Постоянный
Битрейт : 192 Кбит/сек
Каналы : 2 канала
Расположение каналов : Front: L R
Частота : 48,0 КГц
Метод сжатия : С потерями
Размер потока : 32,0 Мбайт (15%)
Язык : Russian
Default : Да
Forced : Нет
Скриншоты
Сезон 8. Серии 141-160
Видео: AVC at 1015 Кбит/сек Aspect : 716 x 432 (1.769)@768 x 432 at 25.000 fps
Аудио: AC-3 at 192 Кбит/сек Infos : 2 канала, 48,0 КГц
MI
Общее
Уникальный идентификатор : 241028417322681014589931902967147765075 (0xB5546277920E117EAD29537150CD9D53)
Полное имя : E:\kodirovany\Интерны.SATRip.AVC.RG Русские сериалы\Интерны. 08 Сезон.SATRip.AVC.Doc66\Интерны - 141 серия.mkv
Формат : Matroska
Версия формата : Version 4 / Version 2
Размер файла : 215 Мбайт
Продолжительность : 24 м.
Общий поток : 1231 Кбит/сек
Название фильма : Интерны - 141 серия. SATRip (AVC) by Doc66
Дата кодирования : UTC 2013-05-28 20:44:48
Программа кодирования : mkvmerge v6.1.0 ('Old Devil') built on Mar 4 2013 09:10:42
Библиотека кодирования : libebml v1.3.0 + libmatroska v1.4.0
Видео
Идентификатор : 1
Формат : AVC
Формат/Информация : Advanced Video Codec
Профиль формата : High@L3.1
Параметр CABAC формата : Да
Параметр ReFrames формата : 8 кадров
Идентификатор кодека : V_MPEG4/ISO/AVC
Продолжительность : 24 м.
Битрейт : 1015 Кбит/сек
Ширина : 716 пикселей
Высота : 432 пикселя
Соотношение сторон : 16:9
Соотношение сторон в оригинале : 16:9
Режим частоты кадров : Постоянный
Частота кадров : 25,000 кадров/сек
Цветовое пространство : YUV
Субдискретизация насыщенности : 4:2:0
Битовая глубина : 8 бит
Тип развёртки : Прогрессивная
Бит/(Пиксели*Кадры) : 0.131
Размер потока : 178 Мбайт (82%)
Библиотека кодирования : x264 core 132 r2310 76a5c3a
Настройки программы : cabac=1 / ref=8 / deblock=1:-2:-1 / analyse=0x3:0x113 / me=umh / subme=9 / psy=1 / psy_rd=1.00:0.15 / mixed_ref=1 / me_range=24 / chroma_me=1 / trellis=2 / 8x8dct=1 / cqm=0 / deadzone=21,11 / fast_pskip=1 / chroma_qp_offset=-3 / threads=6 / lookahead_threads=1 / sliced_threads=0 / nr=0 / decimate=1 / interlaced=0 / bluray_compat=0 / constrained_intra=0 / bframes=8 / b_pyramid=2 / b_adapt=2 / b_bias=0 / direct=1 / weightb=1 / open_gop=0 / weightp=2 / keyint=250 / keyint_min=25 / scenecut=40 / intra_refresh=0 / rc=crf / mbtree=0 / crf=19.0 / qcomp=0.60 / qpmin=0 / qpmax=69 / qpstep=4 / ip_ratio=1.40 / pb_ratio=1.30 / aq=2:0.70
Default : Да
Forced : Нет
Цветовой диапазон : Limited
Основные цвета : BT.601 PAL
Характеристики трансфера : BT.470 System B, BT.470 System G
Коэффициенты матрицы : BT.601
Аудио
Идентификатор : 2
Формат : AC-3
Формат/Информация : Audio Coding 3
Расширение режима : CM (complete main)
Параметр Endianness формата : Big
Идентификатор кодека : A_AC3
Продолжительность : 24 м.
Вид битрейта : Постоянный
Битрейт : 192 Кбит/сек
Каналы : 2 канала
Расположение каналов : Front: L R
Частота : 48,0 КГц
Метод сжатия : С потерями
Размер потока : 33,6 Мбайт (16%)
Язык : Russian
Default : Да
Forced : Нет
Скриншоты
Сезон 9. Серии 161-180. Полное обследование
Видео: AVC at 1016 Кбит/сек Aspect : 716 x 432 (1.769)@768 x 432 at 25.000 fps
Аудио: AC-3 at 192 Кбит/сек Infos : 2 канала, 48,0 КГц
MI
Общее
Уникальный идентификатор : 179733933021053650176204731343876332557 (0x87377F11A178019DA4FC1ABB86231C0D)
Полное имя : E:\kodirovany\Интерны.SATRip.AVC.RG Русские сериалы\Интерны. 09 Сезон.SATRip.AVC.Doc66\Интерны - 161 серия.mkv
Формат : Matroska
Версия формата : Version 4 / Version 2
Размер файла : 214 Мбайт
Продолжительность : 24 м.
Общий поток : 1233 Кбит/сек
Название фильма : Интерны - 161 серия. SATRip (AVC) by Doc66
Дата кодирования : UTC 2013-05-28 17:05:57
Программа кодирования : mkvmerge v6.1.0 ('Old Devil') built on Mar 4 2013 09:10:42
Библиотека кодирования : libebml v1.3.0 + libmatroska v1.4.0
Видео
Идентификатор : 1
Формат : AVC
Формат/Информация : Advanced Video Codec
Профиль формата : High@L3.1
Параметр CABAC формата : Да
Параметр ReFrames формата : 8 кадров
Идентификатор кодека : V_MPEG4/ISO/AVC
Продолжительность : 24 м.
Битрейт : 1016 Кбит/сек
Ширина : 716 пикселей
Высота : 432 пикселя
Соотношение сторон : 16:9
Соотношение сторон в оригинале : 16:9
Режим частоты кадров : Постоянный
Частота кадров : 25,000 кадров/сек
Цветовое пространство : YUV
Субдискретизация насыщенности : 4:2:0
Битовая глубина : 8 бит
Тип развёртки : Прогрессивная
Бит/(Пиксели*Кадры) : 0.131
Размер потока : 177 Мбайт (82%)
Библиотека кодирования : x264 core 132 r2310 76a5c3a
Настройки программы : cabac=1 / ref=8 / deblock=1:-2:-1 / analyse=0x3:0x113 / me=umh / subme=9 / psy=1 / psy_rd=1.00:0.15 / mixed_ref=1 / me_range=24 / chroma_me=1 / trellis=2 / 8x8dct=1 / cqm=0 / deadzone=21,11 / fast_pskip=1 / chroma_qp_offset=-3 / threads=6 / lookahead_threads=1 / sliced_threads=0 / nr=0 / decimate=1 / interlaced=0 / bluray_compat=0 / constrained_intra=0 / bframes=8 / b_pyramid=2 / b_adapt=2 / b_bias=0 / direct=1 / weightb=1 / open_gop=0 / weightp=2 / keyint=250 / keyint_min=25 / scenecut=40 / intra_refresh=0 / rc=crf / mbtree=0 / crf=19.0 / qcomp=0.60 / qpmin=0 / qpmax=69 / qpstep=4 / ip_ratio=1.40 / pb_ratio=1.30 / aq=2:0.70
Default : Да
Forced : Нет
Цветовой диапазон : Limited
Основные цвета : BT.601 PAL
Характеристики трансфера : BT.470 System B, BT.470 System G
Коэффициенты матрицы : BT.601
Аудио
Идентификатор : 2
Формат : AC-3
Формат/Информация : Audio Coding 3
Расширение режима : CM (complete main)
Параметр Endianness формата : Big
Идентификатор кодека : A_AC3
Продолжительность : 24 м.
Вид битрейта : Постоянный
Битрейт : 192 Кбит/сек
Каналы : 2 канала
Расположение каналов : Front: L R
Частота : 48,0 КГц
Метод сжатия : С потерями
Размер потока : 33,4 Мбайт (16%)
Язык : Russian
Default : Да
Forced : Нет
Скриншоты
Сезон 10. Серии 181-203
Видео: AVC at 1095 Кбит/сек Aspect : 716 x 428 (1.783)@760 x 428 at 25.000 fps
Аудио: AC-3 at 192 Кбит/сек Infos : 2 канала, 48,0 КГц
MI
Общее
Уникальный идентификатор : 175140018311740544504479558575682170115 (0x83C2BD962C560709BC5D1AEA35672D03)
Полное имя : E:\kodirovany\Интерны.SATRip.AVC.RG Русские сериалы\Интерны. 10 Сезон.SATRip.AVC.Doc66\s10e181.mkv
Формат : Matroska
Версия формата : Version 2
Размер файла : 235 Мбайт
Продолжительность : 24 м.
Общий поток : 1313 Кбит/сек
Название фильма : Интерны - 181 серия. SATRip (AVC) by Doc66
Дата кодирования : UTC 2014-02-09 11:58:47
Программа кодирования : mkvmerge v5.8.0 ('No Sleep / Pillow') built on Sep 2 2012 15:37:04
Библиотека кодирования : libebml v1.2.3 + libmatroska v1.3.0
Видео
Идентификатор : 2
Формат : AVC
Формат/Информация : Advanced Video Codec
Профиль формата : High@L3.1
Параметр CABAC формата : Да
Параметр ReFrames формата : 8 кадров
Идентификатор кодека : V_MPEG4/ISO/AVC
Продолжительность : 24 м.
Битрейт : 1095 Кбит/сек
Ширина : 716 пикселей
Высота : 428 пикселей
Соотношение сторон : 16:9
Соотношение сторон в оригинале : 16:9
Режим частоты кадров : Постоянный
Частота кадров : 25,000 кадров/сек
Цветовое пространство : YUV
Субдискретизация насыщенности : 4:2:0
Битовая глубина : 8 бит
Тип развёртки : Прогрессивная
Бит/(Пиксели*Кадры) : 0.143
Размер потока : 196 Мбайт (83%)
Библиотека кодирования : x264 core 142 r2389 956c8d8
Настройки программы : cabac=1 / ref=8 / deblock=1:-2:-1 / analyse=0x3:0x113 / me=umh / subme=9 / psy=1 / psy_rd=1.00:0.15 / mixed_ref=1 / me_range=24 / chroma_me=1 / trellis=2 / 8x8dct=1 / cqm=0 / deadzone=21,11 / fast_pskip=1 / chroma_qp_offset=-3 / threads=6 / lookahead_threads=1 / sliced_threads=0 / nr=0 / decimate=1 / interlaced=0 / bluray_compat=0 / constrained_intra=0 / bframes=8 / b_pyramid=2 / b_adapt=2 / b_bias=0 / direct=1 / weightb=1 / open_gop=0 / weightp=2 / keyint=250 / keyint_min=25 / scenecut=40 / intra_refresh=0 / rc=crf / mbtree=0 / crf=19.0 / qcomp=0.60 / qpmin=0 / qpmax=69 / qpstep=4 / ip_ratio=1.40 / pb_ratio=1.30 / aq=2:0.70
Язык : Russian
Default : Да
Forced : Нет
Цветовой диапазон : Limited
Основные цвета : BT.601 PAL
Характеристики трансфера : BT.470 System B, BT.470 System G
Коэффициенты матрицы : BT.601
Аудио
Идентификатор : 1
Формат : AC-3
Формат/Информация : Audio Coding 3
Расширение режима : CM (complete main)
Параметр Endianness формата : Big
Идентификатор кодека : A_AC3
Продолжительность : 24 м.
Вид битрейта : Постоянный
Битрейт : 192 Кбит/сек
Каналы : 2 канала
Расположение каналов : Front: L R
Частота : 48,0 КГц
Метод сжатия : С потерями
Размер потока : 34,3 Мбайт (15%)
Язык : Russian
Default : Да
Forced : Нет
Скриншоты
Сезон 14
Видео: AVC at 1103 Кбит/сек Aspect : 720 x 400 (1.800) at 25.000 fps
Аудио: AC-3 at 192 Кбит/сек Infos : 2 канала, 48,0 КГц
MI
Общее
Уникальный идентификатор : 178427755845446455459671994563179321251 (0x863BEF8FE27A76A09A2041FB81F817A3)
Полное имя : E:\kodirovany\Интерны.SATRip.AVC.RG Русские сериалы\Интерны. 14 Сезон.SATRip.AVC.Doc66\s14e01.mkv
Формат : Matroska
Версия формата : Version 2
Размер файла : 224 Мбайт
Продолжительность : 23 м.
Общий поток : 1321 Кбит/сек
Название фильма : Интерны - s14e01.SATRip (AVC) by Doc66
Дата кодирования : UTC 2016-02-26 22:06:01
Программа кодирования : mkvmerge v5.8.0 ('No Sleep / Pillow') built on Sep 2 2012 15:37:04
Библиотека кодирования : libebml v1.2.3 + libmatroska v1.3.0
Видео
Идентификатор : 1
Формат : AVC
Формат/Информация : Advanced Video Codec
Профиль формата : High@L3.1
Параметр CABAC формата : Да
Параметр ReFrames формата : 8 кадров
Идентификатор кодека : V_MPEG4/ISO/AVC
Продолжительность : 23 м.
Битрейт : 1103 Кбит/сек
Ширина : 720 пикселей
Высота : 400 пикселей
Соотношение сторон : 16:9
Режим частоты кадров : Постоянный
Частота кадров : 25,000 кадров/сек
Цветовое пространство : YUV
Субдискретизация насыщенности : 4:2:0
Битовая глубина : 8 бит
Тип развёртки : Прогрессивная
Бит/(Пиксели*Кадры) : 0.153
Размер потока : 187 Мбайт (83%)
Библиотека кодирования : x264 core 130 r2273 b3065e6
Настройки программы : cabac=1 / ref=8 / deblock=1:-2:-1 / analyse=0x3:0x113 / me=umh / subme=9 / psy=1 / psy_rd=1.00:0.15 / mixed_ref=1 / me_range=24 / chroma_me=1 / trellis=2 / 8x8dct=1 / cqm=0 / deadzone=21,11 / fast_pskip=1 / chroma_qp_offset=-3 / threads=6 / lookahead_threads=1 / sliced_threads=0 / nr=0 / decimate=1 / interlaced=0 / bluray_compat=0 / constrained_intra=0 / bframes=8 / b_pyramid=2 / b_adapt=2 / b_bias=0 / direct=1 / weightb=1 / open_gop=0 / weightp=2 / keyint=250 / keyint_min=25 / scenecut=40 / intra_refresh=0 / rc=crf / mbtree=0 / crf=18.0 / qcomp=0.60 / qpmin=0 / qpmax=69 / qpstep=4 / ip_ratio=1.40 / pb_ratio=1.30 / aq=2:0.70
Default : Да
Forced : Нет
Аудио
Идентификатор : 2
Формат : AC-3
Формат/Информация : Audio Coding 3
Расширение режима : CM (complete main)
Параметр Endianness формата : Big
Идентификатор кодека : A_AC3
Продолжительность : 23 м.
Вид битрейта : Постоянный
Битрейт : 192 Кбит/сек
Каналы : 2 канала
Расположение каналов : Front: L R
Частота : 48,0 КГц
Метод сжатия : С потерями
Размер потока : 32,6 Мбайт (15%)
Default : Да
Forced : Нет
Внимание! Раздача ведётся путём добавления новых серий
Внимание! Раздача ведётся путём добавления новых серий; при каждом добавлении создаётся новый торрент. Чтобы начать докачку новой серии, пользователям необходимо сделать следующее:
(1) остановить скачивание,
(2) удалить старый торрент у себя из клиента (старые серии удалять не надо),
(3) скачать новый торрент и запустить его у себя в клиенте вместо старого, при этом указать клиенту путь в старую папку куда и должно происходить скачивание новых серий.
Ваш клиент при этом должен произвести хеширование (проверку) старой папки (если не производит сам - помогите ему сделать это), и будет докачивать только те серии которых у вас ещё нет. Старые серии при этом не удаляются, а продолжают раздаваться!
Eсли вы уже удалили старые серии, то предотвратить повторную закачку старых серий можно, сняв галочку в соответствующих местах при запуске нового торрента. По возможности, желательно не удалять старые серии как можно дольше чтобы релизёр не столько продолжал раздавать старые серии, а смог сконцентрироваться на новых.
Релиз
26.02. В раздачу добавлены вновь отрипованые 1 и 14 сезоны. Продолжение следует
Download
Чтобы скачать .torrent файл необходима регистрация
Сайт не распространяет и не хранит электронные версии произведений, а лишь предоставляет доступ к создаваемому пользователями каталогу ссылок на торрент-файлы, которые содержат только списки хеш-сумм
[Профиль]  [ЛС] 
 

Doc66

RG Русские сериалы

Стаж: 11 лет 8 месяцев

Сообщений: 3403

Doc66 · 28-Янв-16 15:02 (спустя 15 мин., ред. 28-Янв-16 15:02)

[Цитировать] 

Привет всем фанатам Интернов. Залил пока 4 Сезона, но обязательно будут добавления. По окончания 14, финального Сезона обязательно добавлю его сюда. Ну и подниму с винтов предыдущие сезоны. На худой случай порипую сам, если не найду. Проблемы могут быть с предпоследними сезонами, они были просто отвратительны. Я их практически не смотрел и не писал. Но думаю, что найдём.
Пока всё. О любых изменениях в релизе обязательно буду писать в шапке.
Да, 7-10 сезоны в анаморфе, развлекался)
[Профиль]  [ЛС] 

fedor3

Стаж: 10 лет 1 месяц

Сообщений: 81

fedor3 · 30-Янв-16 20:39 (спустя 2 дня 5 часов)

[Цитировать] 

Спасибо Доктор, будем ждать лекарство
[Профиль]  [ЛС] 

yucomp

Стаж: 9 лет 9 месяцев

Сообщений: 10


yucomp · 02-Фев-16 18:44 (спустя 2 дня 22 часа)

[Цитировать] 

Спасибо!!!
Дополнения когда будут? 8 сезон всего одна серия.
Сказал "А", говори "Б".
Это не "наезд" - это ожидание желаемого))))
[Профиль]  [ЛС] 

Doc66

RG Русские сериалы

Стаж: 11 лет 8 месяцев

Сообщений: 3403

Doc66 · 02-Фев-16 22:43 (спустя 3 часа)

[Цитировать] 

yucomp
Вы докачайте материал до конца, потом отписывайтесь. Первые сезоны решил риповать сам. Будут по мере
[Профиль]  [ЛС] 

nickdigger

Стаж: 5 лет 6 месяцев

Сообщений: 32

nickdigger · 15-Фев-16 20:51 (спустя 12 дней)

[Цитировать] 

А 7-9 сезоны всё так же с рекламой на пол экрана? Если нет, то качаю однозначно (так она бесит, реклама), из-за неё предпоследние сезоны в WEBDL пришлось перекачивать. За релиз спасибо.
[Профиль]  [ЛС] 

Intel Core 2 Quad Q9550

Стаж: 8 лет 3 месяца

Сообщений: 15

Intel Core 2 Quad Q9550 · 21-Фев-16 23:08 (спустя 6 дней, ред. 22-Фев-16 01:31)

[Цитировать] 

Doc66
а вы не знаете с первого по 10-й можна найти в 720p качестве? с 10-го сезона я нашел от медиаклаба в 720р а с остальными проблема
[Профиль]  [ЛС] 

dosikru

Стаж: 8 лет 4 месяца

Сообщений: 27

dosikru · 26-Фев-16 04:03 (спустя 4 дня)

[Цитировать] 

Похвальное желание. Как говориться нет худа без добра: теперь и правообладателям зубки можно показать, если сунуться с просьбами удалить раздачу )))
Но я бы все же постарался (пока еще не очень поздно) придерживаться однотипности в именовании серий, например как тут. Так по проще насами будет читаться, да и в целом как-то по солидней.
Поставил на скачивание на своем - круглосуточно 2 канала по 100 Мбит/сек. Так что чем смогу, помогу со скоростью )))
[Профиль]  [ЛС] 

mmtorg3

Стаж: 8 лет 4 месяца

Сообщений: 22


mmtorg3 · 08-Мар-16 01:20 (спустя 10 дней, ред. 08-Мар-16 01:20)

[Цитировать] 

Первый сезон - мыло мыльное. Старые рипы приятственнее. (ТВ 55'')
И как-то загадочно, для чего выкладывать SAT-RIP 10-го сезона, когда 10-13 сезоны есть в WEB-DL.
[Профиль]  [ЛС] 

Doc66

RG Русские сериалы

Стаж: 11 лет 8 месяцев

Сообщений: 3403

Doc66 · 08-Мар-16 08:54 (спустя 7 часов, ред. 08-Мар-16 08:54)

[Цитировать] 

mmtorg3
Вот это новость. Залейте куда нибудь кусочек, я обязательно сравню. Я риповал с исходных имеющихся у меня ДВД. И очень сомневаюсь, что вариант, имеющийся у Вас, лучше. Если конечно, он искусственно не перешарпен. А по поводу вэбок.
10 сезон действительно есть в 720. И начиная с 10 я планировал качать их и риповать. Пока лишь поднял то, что сохранилось на винтах. Рипование это процесс не терпящий торопыг, поверьте мне.
[Профиль]  [ЛС] 

Cтас Кapпов

Стаж: 7 лет 2 месяца

Сообщений: 668

Cтас Кapпов · 08-Мар-16 12:35 (спустя 3 часа)

[Цитировать] 

Замечательно, что в 14 сезоне пропала эта ужасная Софа.
[Профиль]  [ЛС] 

-kyzia-

Стаж: 10 лет 2 месяца

Сообщений: 50

-kyzia- · 19-Мар-16 13:39 (спустя 11 дней)

[Цитировать] 

Кинте ссылкой плиз где можно найти новогоднюю серию которая судя по вики и онлайн сервисам имеется а трекерах почемуто их нигде нет. вышла она 31.12.2014
на трекерал только та что вышла 31.12.2013
[Профиль]  [ЛС] 

shuriki-blin

Стаж: 8 лет 1 месяц

Сообщений: 1


shuriki-blin · 27-Окт-16 07:21 (спустя 7 месяцев, ред. 27-Окт-16 07:21)

[Цитировать] 

2013 НГ: http://besttorrents.org/russian-tv-series/193-interny-novogodnyaya-seriya-181.html
2014 НГ: http://besttorrents.org/russian-tv-series/2017-interny-novogodnyaya-seriya-2014-satrip.html
Не обращайте внимание на номера серий. Они неправильные
https://ru.wikipedia.org/wiki/%D0%A1%D0%BF%D0%B8%D1%81%D0%BE%D0%BA_%D1%8D%D0%BF%D...0%BD%D1%8B%C2%BB
[Профиль]  [ЛС] 

maximus_lt

Top Bonus 05* 10TB

Стаж: 10 лет 11 месяцев

Сообщений: 2711

maximus_lt · 28-Ноя-16 19:02 (спустя 1 месяц 1 день)

[Цитировать] 

Подскажите где достать 13 сезон в HD ?
[Профиль]  [ЛС] 

Triptikon_

Стаж: 8 лет 2 месяца

Сообщений: 413

Triptikon_ · 29-Ноя-16 17:10 (спустя 22 часа)

[Цитировать] 

надеюсь вышедшие в HD сезоны не будут ужиматься в этой раздаче?
[Профиль]  [ЛС] 

stas777a

Стаж: 8 лет 4 месяца

Сообщений: 6


stas777a · 01-Дек-16 12:41 (спустя 1 день 19 часов)

[Цитировать] 

maximus_lt писал(а):
71920069Подскажите где достать 13 сезон в HD ?
Посмотрите на kinozal.tv
[Профиль]  [ЛС] 
 
Ответить
Loading...
Error