Адрес РуТрекера для пользователей РФ - MainTracker.org

Расскажи друзьям:  

Сладкая жизнь / Сезон 1 / Серии: 1-6 из 6 (Андрей Джунковский) [2014, драма, комедия, HDTV (1080i)]

Страницы:  1

Ответить
Автор
Сообщение

Gahan Dave

Top Seed 06* 1280r

Стаж: 10 лет 1 месяц

Сообщений: 3514

Gahan Dave · 07-Фев-16 12:05 (2 года 6 месяцев назад, ред. 07-Фев-16 20:22)

Сладкая жизнь

Год выпуска: 2014
Производство: Good Story Media по заказу ТНТ
Жанр: драма, комедия
Продолжительность: 00:44:00
Субтитры: нет
Режиссёр: Андрей Джунковский
В ролях:
Марта Носова, Никита Панфилов, Анастасия Меськова, Антон Денисенко, Мария Шумакова, Роман Маякин, Лукерья Ильяшенко,
Анастасия Клюева, Николь Спиридонова, Павел Слепухов, Антон Батырев, Артур Бичахчян, Эдуард Мацаберидзе
Описание:
В центре истории «Сладкой жизни» шестеро успешных тридцатилетних москвичей, чья жизнь меняется с появлением главной героини Саши — матери-одиночки из Перми, зарабатывающей на жизнь в ночном клубе танцами go-go. После неприятного инцидента на дне рождения местного мажора Саша отправляет ребенка к бабушке, а сама едет в гости к московской подруге Лере. Когда-то они вместе танцевали в кордебалете Большого театра. Шесть часовых серий «Сладкой жизни» укладываются всего в 8 дней. Но за это время жизнь каждого из героев сериала повернется на 180 градусов. И каждый из участников событий успеет показать себя с самой неожиданной стороны: в диапазоне от абсолютного свинства до настоящего благородства».
Все раздачи сериала
Возраст: 16+
релиз подготовлен RG для
Качество: HDTV (1080i)
Формат: TS
Видео кодек: AVC
Аудио кодек: AC3, MP2

Видео: AVC, 1920 х 1080 (16:9), 25,000 кадр/сек, 6 776 Кбит/сек, 0.131 bit/pixel
Аудио 1: AC3, 48000 Hz, 384 Kbps, 6 каналов
Аудио 2: MP2, 48000 Hz, 192 Kbps, 2 канала

MediaInfo
General
ID : 1 (0x1)
Complete name : D:\Раздачи\Сладкая жизнь (1 сезон 1-6 серии из 6) HDTV (1080i)\Sladkaya.zhizn.S01E02.1080i.HDTV.HDCLUB.ts
Format : MPEG-TS
File size : 2.36 GiB
Duration : 43mn 41s
Overall bit rate mode : Variable
Overall bit rate : 7 740 Kbps
Video
ID : 401 (0x191)
Menu ID : 1 (0x1)
Format : AVC
Format/Info : Advanced Video Codec
Format profile : High@L4
Format settings, CABAC : Yes
Format settings, ReFrames : 4 frames
Codec ID : 27
Duration : 43mn 41s
Bit rate : 6 776 Kbps
Width : 1 920 pixels
Height : 1 080 pixels
Display aspect ratio : 16:9
Frame rate : 25.000 fps
Standard : Component
Color space : YUV
Chroma subsampling : 4:2:0
Bit depth : 8 bits
Scan type : MBAFF
Scan order : Top Field First
Bits/(Pixel*Frame) : 0.131
Stream size : 2.07 GiB (88%)
Color range : Limited
Color primaries : BT.709
Transfer characteristics : BT.709
Matrix coefficients : BT.709
Audio #1
ID : 410 (0x19A)
Menu ID : 1 (0x1)
Format : AC-3
Format/Info : Audio Coding 3
Mode extension : CM (complete main)
Format settings, Endianness : Big
Codec ID : 6
Duration : 43mn 41s
Bit rate mode : Constant
Bit rate : 384 Kbps
Channel(s) : 6 channels
Channel positions : Front: L C R, Side: L R, LFE
Sampling rate : 48.0 KHz
Compression mode : Lossy
Stream size : 120 MiB (5%)
Language : Russian
Audio #2
ID : 411 (0x19B)
Menu ID : 1 (0x1)
Format : MPEG Audio
Format version : Version 1
Format profile : Layer 2
Codec ID : 3
Duration : 43mn 41s
Bit rate mode : Constant
Bit rate : 192 Kbps
Channel(s) : 2 channels
Sampling rate : 48.0 KHz
Compression mode : Lossy
Stream size : 60.0 MiB (2%)
Language : English
Text
ID : 450 (0x1C2)-888
Menu ID : 1 (0x1)
Format : Teletext Subtitle
Language : Russian
Menu
ID : 400 (0x190)
Menu ID : 1 (0x1)
Duration : 43mn 41s
List : 401 (0x191) (AVC) / 410 (0x19A) (AC-3, Russian) / 411 (0x19B) (MPEG Audio, English) / 450 (0x1C2) ()
Language : / Russian / English

Скриншоты сериала

Раздаю до первых 5-ти скачавших, на раздачи не возвращаюсь...
Download
Чтобы скачать .torrent файл необходима регистрация
Сайт не распространяет и не хранит электронные версии произведений, а лишь предоставляет доступ к создаваемому пользователями каталогу ссылок на торрент-файлы, которые содержат только списки хеш-сумм
[Профиль]  [ЛС] 
 

Joker_Homenet

Стаж: 9 лет 9 месяцев

Сообщений: 38

Joker_Homenet · 29-Фев-16 20:18 (спустя 22 дня)

[Цитировать] 

Спасибо!
А что по поводу второго сезона?
[Профиль]  [ЛС] 

#Antisnl#

Стаж: 10 лет

Сообщений: 973

#Antisnl# · 01-Мар-16 14:12 (спустя 17 часов)

[Цитировать] 

Второй бы в версии 18+ с рутуба за 30руб. за весь сезон.
[Профиль]  [ЛС] 

Coma White

Стаж: 8 лет 5 месяцев

Сообщений: 70

Coma White · 08-Мар-16 17:37 (спустя 7 дней)

[Цитировать] 

#Antisnl#, он там с цензурой. Без цензуры только первый.
[Профиль]  [ЛС] 

#Antisnl#

Стаж: 10 лет

Сообщений: 973

#Antisnl# · 08-Мар-16 18:53 (спустя 1 час 16 мин.)

[Цитировать] 

Coma White
Ну, я не про мат, а про сцены 18+.
[Профиль]  [ЛС] 

Пятрас

Стаж: 9 лет 7 месяцев

Сообщений: 92

Пятрас · 20-Янв-18 19:33 (спустя 1 год 10 месяцев)

[Цитировать] 

А как тут насчет цензуры?
[Профиль]  [ЛС] 
 
Ответить
Loading...
Error