Адрес РуТрекера для пользователей РФ - MainTracker.org

Расскажи друзьям:  

Интерны / Сезон: 1-6 / Серии: 1-120 из 280 (Максим Пежемский, Дина Штурманова) [2010, ситком, DVDRip]

Страницы:  1

Ответить
Автор
Сообщение

Tyison

Top Bonus 03* 1TB

Стаж: 8 лет 5 месяцев

Сообщений: 315

Tyison · 06-Мар-16 18:10 (2 года 6 месяцев назад, ред. 07-Мар-16 12:14)

Интерны
Год выпуска: 2010
Производство: ТНТ
Жанр: ситком
Продолжительность: серия 00:25:00
Субтитры: Отсутствуют
Режиссёр: Максим Пежемский, Дина Штурманова
В ролях: Иван Охлобыстин, Илья Глинников, Один Байрон, Светлана Камынина, Вадим Демчог, Светлана Пермякова, Яна Гурьянова, Александр Ляпин, Юлия Назаренко, Дмитрий Шаракоис, Александр Ильин, Азамат Мусагалиев, Аглая Тарасова
Описание: Жизнь обычной многопрофильной больницы — сплошная рутина. Ненормированный рабочий день, тяжелая, неблагодарная работа, а также инопланетяне, электрики, спивающийся венеролог, озабоченная медсестра, больной-эксгибиционист, ручная крыса, четыре интерна, которые все время расстраивают своего руководителя... Как Иван Охлобыстин в лице доктора Быкова справится со всей этой суетой?
Сэмпл: http://multi-up.com/1092143
Все раздачи сериала
Качество: DVDRip
Формат: AVI
Видео кодек: XviD
Аудио кодек: AC3
Видео: 640x368 (1.739), 25 fps, XviD build 65 ~1250 kbps avg, 0.212 bit/pixel
Аудио: 48 kHz, AC3, 2 ch, ~192.00 kbps avg
MI
General
Complete name : F:\Video\Сериалы\Интерны\ИНТЕРНЫ_DVDRip_by_iriston\ИНТЕРНЫ_VI\Интерны_101.avi
Format : AVI
Format/Info : Audio Video Interleave
File size : 223 MiB
Duration : 21mn 30s
Overall bit rate : 1 451 Kbps
Writing application : VirtualDubMod 1.5.10.3 | www.virtualdub-fr.org || (build 2550/release)
Writing library : VirtualDubMod build 2550/release
Video
ID : 0
Format : MPEG-4 Visual
Format profile : Advanced Simple@L5
Format settings, BVOP : 1
Format settings, QPel : No
Format settings, GMC : No warppoints
Format settings, Matrix : Custom
Codec ID : XVID
Codec ID/Hint : XviD
Duration : 21mn 30s
Bit rate : 1 250 Kbps
Width : 640 pixels
Height : 368 pixels
Display aspect ratio : 1.739
Frame rate : 25.000 fps
Color space : YUV
Chroma subsampling : 4:2:0
Bit depth : 8 bits
Scan type : Progressive
Compression mode : Lossy
Bits/(Pixel*Frame) : 0.212
Stream size : 192 MiB (86%)
Writing library : XviD 65
Audio
ID : 1
Format : AC-3
Format/Info : Audio Coding 3
Mode extension : CM (complete main)
Format settings, Endianness : Big
Codec ID : 2000
Duration : 21mn 30s
Bit rate mode : Constant
Bit rate : 192 Kbps
Channel(s) : 2 channels
Channel positions : Front: L R
Sampling rate : 48.0 KHz
Frame rate : 31.250 fps (1536 spf)
Compression mode : Lossy
Stream size : 29.5 MiB (13%)
Alignment : Split accross interleaves
Interleave, duration : 40 ms (1.00 video frame)
Interleave, preload duratio : 500 ms
Скриншоты
Download
Чтобы скачать .torrent файл необходима регистрация
Сайт не распространяет и не хранит электронные версии произведений, а лишь предоставляет доступ к создаваемому пользователями каталогу ссылок на торрент-файлы, которые содержат только списки хеш-сумм
[Профиль]  [ЛС] 
 

Сударыня

Moderator gray

Стаж: 11 лет 5 месяцев

Сообщений: 11000

Сударыня · 07-Мар-16 10:53 (спустя 16 часов)

[Цитировать] 

Tyison
Графу - Субтитры - добавьте, пожалуйста.
Tyison писал(а):
70189203Сэмпл: http://multi-up.com/1092051
В семпле обязательно должно быть название сериала. Файлообменник multi-up.com читает только латиницу.
Добавьте,пожалуйста, одну ссылку на все раздачи этого сериала, имеющиеся в разделе
О ссылках на все раздачи сериала.
[Профиль]  [ЛС] 

KCEHOFOHT

Стаж: 8 лет 6 месяцев

Сообщений: 10

KCEHOFOHT · 09-Мар-16 00:25 (спустя 1 день 13 часов)

[Цитировать] 

А почему 3 раздачи, не объединить в одну?
Технические данные примерно одинаковы. Просто в описании это указать.
[Профиль]  [ЛС] 

Tyison

Top Bonus 03* 1TB

Стаж: 8 лет 5 месяцев

Сообщений: 315

Tyison · 09-Мар-16 05:07 (спустя 4 часа)

[Цитировать] 

KCEHOFOHT
Качество разное у всех.
[Профиль]  [ЛС] 

ingwie222

Стаж: 10 лет 4 месяца

Сообщений: 129


ingwie222 · 17-Июл-16 13:36 (спустя 4 месяца 8 дней)

[Цитировать] 

а в нормальном качестве есть?
[Профиль]  [ЛС] 

RioFast

Стаж: 8 лет 3 месяца

Сообщений: 862

RioFast · 12-Фев-17 00:25 (спустя 6 месяцев)

[Цитировать] 

Качество на сегодняшний день - слабовато. Спасибо за труды.
[Профиль]  [ЛС] 

ogl0

Стаж: 9 лет

Сообщений: 1062

ogl0 · 24-Фев-17 21:17 (спустя 12 дней)

[Цитировать] 

Почему нет первых 6 сезонов хотя бы в DVB качестве?
[Профиль]  [ЛС] 

ddk-moscow

Стаж: 10 лет 9 месяцев

Сообщений: 11

ddk-moscow · 01-Мар-17 15:27 (спустя 4 дня)

[Цитировать] 

Привет! А есть у кого с МР3 звуком, а то на работе АС не берёт...
[Профиль]  [ЛС] 

gekzJkMrF

Стаж: 4 года 9 месяцев

Сообщений: 4


gekzJkMrF · 28-Сен-17 22:39 (спустя 6 месяцев)

[Цитировать] 

Скачивайте, пока есть возможность: официальные сайты показа начали тотальную обрезку серий до потери смысла!
Благодарю ребят, которые готовят раздачи, Tyison и Doc66 в частности!
[Профиль]  [ЛС] 

vsluh

Стаж: 7 лет 4 месяца

Сообщений: 1


vsluh · 14-Мар-18 10:36 (спустя 5 месяцев 15 дней)

[Цитировать] 

На мой взгляд, у Вас лучшее качество и картинки, и звука. Еще скачивала у Вас в AVC. Еще чище было. Спасибо огромное.
[Профиль]  [ЛС] 

Yanyanovvv

Стаж: 1 год 9 месяцев

Сообщений: 5


Yanyanovvv · 07-Июн-18 14:37 (спустя 2 месяца 24 дня)

[Цитировать] 

Сериал интересный, пересматриваю не в первый раз, даже и не в 5-ый наверно))
По качеству и звуку, претензий нет, был бы лучше звук или картинка, весило больше, а так сейчас вполне нормальный компактный вариант))
[Профиль]  [ЛС] 

olganadia

Стаж: 10 лет 9 месяцев

Сообщений: 65


olganadia · 19-Июл-18 21:54 (спустя 1 месяц 12 дней)

[Цитировать] 

Поддерживаю! Спасибо за раздачу, а то обрезанные серии (на официальных каналах! Первоисточник, блин!) смотреть невозможно..
[Профиль]  [ЛС] 
 
Ответить
Loading...
Error