Интерны / Сезон: 11-13 / Серии: 204-258 из 280 (Максим Пежемский, Дина Штурманова) [2010, ситком,WEBRip]

Страницы:  1

Ответить
Автор
Сообщение

Tyison

Top Bonus 03* 1TB

Стаж: 8 лет 6 месяцев

Сообщений: 327

Tyison · 07-Мар-16 16:55 (2 года 7 месяцев назад, ред. 07-Мар-16 16:56)

Интерны
Год выпуска: 2010
Производство: ТНТ
Жанр: ситком
Продолжительность: серия 00:25:00
Субтитры: Отсутствуют
Режиссёр: Максим Пежемский, Дина Штурманова
В ролях: Иван Охлобыстин, Илья Глинников, Александр Ильин мл., Вадим Демчог, Светлана Камынина, Юлия Назаренко-Благая, Один Ланд Байрон, Светлана Пермякова, Илья Шидловский, Александр Ляпин, Аглая Тарасова
Описание: Жизнь обычной многопрофильной больницы — сплошная рутина. Ненормированный рабочий день, тяжелая, неблагодарная работа, а также инопланетяне, электрики, спивающийся венеролог, озабоченная медсестра, больной-эксгибиционист, ручная крыса, четыре интерна, которые все время расстраивают своего руководителя... Как Иван Охлобыстин в лице доктора Быкова справится со всей этой суетой?
Сэмпл: http://multi-up.com/1092182
Все раздачи сериала
Качество: WEBRip
Формат: AVI
Видео кодек: XviD
Аудио кодек: MP3
Видео: 704x400 (16:9), 25 fps, XviD build 73 ~1500 kbps avg, 0.214 bit/pixel
Аудио: 48 kHz, MPEG Layer 3, 2 ch, ~192.00 kbps avg
MI
General
Complete name : F:\Video\Сериалы\Интерны\Interny WEB-DLRip\Season 11\Interny-11.(01.seriya).WEB-DLRip.avi
Format : AVI
Format/Info : Audio Video Interleave
File size : 302 MiB
Duration : 24mn 45s
Overall bit rate : 1 706 Kbps
Writing application : VirtualDubMod 1.5.10.3 | www.virtualdub-fr.org || (build 2550/release)
Writing library : VirtualDubMod build 2550/release
Video
ID : 0
Format : MPEG-4 Visual
Format profile : Advanced [email protected]
Format settings, BVOP : 1
Format settings, QPel : No
Format settings, GMC : No warppoints
Format settings, Matrix : Custom
Codec ID : XVID
Codec ID/Hint : XviD
Duration : 24mn 45s
Bit rate : 1 504 Kbps
Width : 704 pixels
Height : 400 pixels
Display aspect ratio : 16:9
Frame rate : 25.000 fps
Color space : YUV
Chroma subsampling : 4:2:0
Bit depth : 8 bits
Scan type : Progressive
Compression mode : Lossy
Bits/(Pixel*Frame) : 0.214
Stream size : 266 MiB (88%)
Writing library : XviD 73
Audio
ID : 1
Format : MPEG Audio
Format version : Version 1
Format profile : Layer 3
Mode : Joint stereo
Mode extension : MS Stereo
Codec ID : 55
Codec ID/Hint : MP3
Duration : 24mn 45s
Bit rate mode : Constant
Bit rate : 192 Kbps
Channel(s) : 2 channels
Sampling rate : 48.0 KHz
Compression mode : Lossy
Stream size : 34.0 MiB (11%)
Alignment : Aligned on interleaves
Interleave, duration : 40 ms (1.00 video frame)
Interleave, preload duratio : 504 ms
Writing library : LAME3.99r
Encoding settings : -m j -V 4 -q 2 -lowpass 18.6 -b 192
Скриншоты
Download
Чтобы скачать .torrent файл необходима регистрация
Сайт не распространяет и не хранит электронные версии произведений, а лишь предоставляет доступ к создаваемому пользователями каталогу ссылок на торрент-файлы, которые содержат только списки хеш-сумм
[Профиль]  [ЛС] 
 

Сударыня

Moderator gray

Стаж: 11 лет 6 месяцев

Сообщений: 11070

Сударыня · 07-Мар-16 17:12 (спустя 17 мин., ред. 07-Мар-16 17:12)

[Цитировать] 

Tyison писал(а):
70197058Интерны / Сезон: 11-13 / Серии: 204-258 из 280 (Максим Пежемский, Дина Штурманова) [2010, ситком, WEB-DLRip]
Обозначение качества WEBRip и WEBWP-Rip
Сама вам подправила.
[Профиль]  [ЛС] 

gildemar

Стаж: 10 лет 11 месяцев

Сообщений: 1007

gildemar · 28-Апр-16 14:13 (спустя 1 месяц 20 дней)

[Цитировать] 

Тут прочитал, китайцы купили себе права на адаптацию этого сериала: если у кого появится возможность, залейте, когда серии выходить начнут, китайских "интернов", плиз.
А еще читал, что немцы в свое время купили "папиных дочек" - может, кто выложит немецкую версию этого кина?))
[Профиль]  [ЛС] 

pavlov_roma

Стаж: 2 года 2 месяца

Сообщений: 5


pavlov_roma · 09-Авг-16 18:20 (спустя 3 месяца 11 дней)

[Цитировать] 

как то тупо выложено это что мне 2 раза надо скачивать 6 сезон ? а то у него в начале выложено с 1 по 6 сезон и дальше идет опять с 6 и дальше и как мне быть)
[Профиль]  [ЛС] 

Сударыня

Moderator gray

Стаж: 11 лет 6 месяцев

Сообщений: 11070

Сударыня · 09-Авг-16 18:31 (спустя 11 мин.)

[Цитировать] 

pavlov_roma писал(а):
71196054как то тупо выложено это что мне 2 раза надо скачивать 6 сезон ? а то у него в начале выложено с 1 по 6 сезон и дальше идет опять с 6 и дальше и как мне быть)
С тех серий, которые у вас уже скачаны, галочки снимите и всё.
[Профиль]  [ЛС] 

Сударыня

Moderator gray

Стаж: 11 лет 6 месяцев

Сообщений: 11070

Сударыня · 11-Авг-16 20:50 (спустя 2 дня 2 часа)

[Цитировать] 

pavlov_roma писал(а):
71196252ясно спасибо
Пожалуйста
[Профиль]  [ЛС] 

KENT_light

Стаж: 9 лет 1 месяц

Сообщений: 641

KENT_light · 22-Окт-16 20:25 (спустя 2 месяца 10 дней)

[Цитировать] 

Мне кажется, или если собрать три раздачи - не хватает 2-х серий? И судя по всему - Новогодних.
В 10-м сезоне на 3 серии больше = то бишь 23. В 13-м сезоне не хватает 5-ти серий = то есть всего 15. В остальных 12 сезонах по 20 серий в каждом сезоне. Итого 12x20 = 240 серий + 38 (23 + 15) = 278 серий. Хотя везде написано, что должно быть 280. То есть где-то сбилась сортировка серий и не хватает 2-х эпизодов.
И спасибо за раздачу!
[Профиль]  [ЛС] 

L-eee-vik

Стаж: 9 лет 8 месяцев

Сообщений: 5


L-eee-vik · 23-Ноя-16 19:24 (спустя 1 месяц)

[Цитировать] 

А 14 сезон будет в раздаче?
[Профиль]  [ЛС] 

Kamerin

Стаж: 8 лет 5 месяцев

Сообщений: 25

Kamerin · 11-Фев-17 11:21 (спустя 2 месяца 17 дней)

[Цитировать] 

Ублюдки, на ютубе поудаляли...
Низкий поклон rutracker и раздающим!
[Профиль]  [ЛС] 

jethrotull2

Стаж: 9 лет 11 месяцев

Сообщений: 43


jethrotull2 · 28-Май-17 03:50 (спустя 3 месяца 16 дней, ред. 28-Май-17 03:50)

[Цитировать] 

Не хватает двух новогодних эпизодов. Итого 280 серий.
[Профиль]  [ЛС] 

IGOR CUSTOMIZER

Стаж: 9 лет 3 месяца

Сообщений: 35

IGOR CUSTOMIZER · 02-Ноя-17 19:48 (спустя 5 месяцев 5 дней)

[Цитировать] 

jethrotull2 писал(а):
73195192Не хватает двух новогодних эпизодов. Итого 280 серий.
А кто подскажет где взять эти два новогодних эпизода???
[Профиль]  [ЛС] 

linx0174

Стаж: 7 лет 11 месяцев

Сообщений: 100

linx0174 · 19-Сен-18 12:59 (спустя 10 месяцев)

[Цитировать] 

Сударыня писал(а):
71196112
pavlov_roma писал(а):
71196054как то тупо выложено это что мне 2 раза надо скачивать 6 сезон ? а то у него в начале выложено с 1 по 6 сезон и дальше идет опять с 6 и дальше и как мне быть)
С тех серий, которые у вас уже скачаны, галочки снимите и всё.
ГЕНИАЛЬНО!!!!! ))))))))))
[Профиль]  [ЛС] 
 
Ответить
Loading...
Error