Адрес РуТрекера для пользователей РФ - 11.MainTracker.org

Расскажи друзьям:  

Кухня / Сезон: 1 / Серии: 1-20 из 20 (Дмитрий Дьяченко) [2012, Комедия, DVDRip]

Страницы:  1

Ответить
Автор
Сообщение

Сибиряк777

Top Seed 05* 640r

Стаж: 10 лет 7 месяцев

Сообщений: 3203

Сибиряк777 · 10-Мар-16 03:09 (3 года 1 месяц назад, ред. 10-Мар-16 03:20)

Кухня
«Вкусная комедия»

Год выпуска: 2012
Производство: Россия, YBW Group по заказу СTC
Жанр: Комедия
Продолжительность: ~ 00:25:00
Субтитры: нет
Режиссёр: Дмитрий Дьяченко
В ролях: Дмитрий Назаров, Дмитрий Нагиев, Елена Подкаминская, Марина Могилевская, Марк Богатырёв, Виктор Хориняк, Ольга Кузьмина
Описание: Виктор Баринов – лучший шеф-повар лучшего ресторана Москвы, считает себя Богом на своей кухне. И даже конкуренты не могут с этим не согласиться. Богам разрешено все! Поэтому Баринов не отказывает себе в удовольствии угоститься хорошим коньячком - сверх меры, позволяет себе быть азартным – без тормозов, и подрезает крылья своим кухонным архангелам – без жалости. В пекло кухни Баринова, как мотылек на огонь, попадает недавно демобилизовавшийся из армии Максим Лавров. Максим с детства бредил кулинарией и с успехом отслужил на солдатской кухне, где его солянка приравнивалась к боекомплекту. Кулинарные грезы Максима регулярно перемежаются с грезами по представительницам прекрасного пола, для которых у Лаврова тоже есть свои «рецепты». Однако, реальность такова, что для того, чтобы пекло кухни сделалось для него раем, Максиму нужно добиться признания коллег, которые не упускают шанса разыграть новенького; любви публики, которая страх как привередлива; уважения Шефа, что практически невозможно, и, главное, – стать Мастером.
l
Все раздачи сериала
Качество: DVDRip
Формат: AVI
Видео кодек: XviD
Аудио кодек: AC3
Видео: 720x400 (16:9), 25.000 fps, XviD build 65, 1994 Kbps, 0.27 bit/pixel
Аудио: 48 kHz, AC3 Dolby Digital, 2/0 (L,R) ch, ~192.00 kbps avg

MediaInfo
General
Complete name : Downloads\Кухня.(1 сезон).2012.DVDRip
Format : AVI
Format/Info : Audio Video Interleave
File size : 399 MiB
Duration : 25mn 24s
Overall bit rate : 2 195 Kbps
Writing application : VirtualDubMod 1.5.10.3 | www.virtualdub-fr.org || (build 2550/release)
Writing library : VirtualDubMod build 2550/release
Video #0
ID : 0
Format : MPEG-4 Visual
Format profile : Advanced [email protected]
Format settings, BVOP : 1
Format settings, QPel : No
Format settings, GMC : No warppoints
Format settings, Matrix : Custom
Codec ID : XVID
Codec ID/Hint : XviD
Duration : 25mn 24s
Bit rate : 1 994 Kbps
Width : 720 pixels
Height : 400 pixels
Display aspect ratio : 16:9
Frame rate : 25.000 fps
Color space : YUV
Chroma subsampling : 4:2:0
Bit depth : 8 bits
Scan type : Progressive
Compression mode : Lossy
Bits/(Pixel*Frame) : 0.277
Stream size : 362 MiB (91%)
Writing library : XviD 65
Audio #1
ID : 1
Format : AC-3
Format/Info : Audio Coding 3
Mode extension : CM (complete main)
Format settings, Endianness : Big
Codec ID : 2000
Duration : 25mn 24s
Bit rate mode : Constant
Bit rate : 192 Kbps
Channel(s) : 2 channels
Channel positions : Front: L R
Sampling rate : 48.0 KHz
Bit depth : 16 bits
Compression mode : Lossy
Stream size : 34.9 MiB (9%)
Alignment : Split accross interleaves
Interleave, duration : 40 ms (1.00 video frame)
Interleave, preload duration : 500 ms
Скриншоты
Download
Чтобы скачать .torrent файл необходима регистрация
Сайт не распространяет и не хранит электронные версии произведений, а лишь предоставляет доступ к создаваемому пользователями каталогу ссылок на торрент-файлы, которые содержат только списки хеш-сумм
[Профиль]  [ЛС] 
 

Тоша13

Победитель спортивного конкурса **

Стаж: 8 лет 8 месяцев

Сообщений: 16001

Тоша13 · 13-Мар-16 19:24 (спустя 3 дня)

[Цитировать] 

FreeManOn3, как видишь, уже 3 дня со скоростью у всех беда.
[Профиль]  [ЛС] 

MrYzsd

Стаж: 6 лет 10 месяцев

Сообщений: 1


MrYzsd · 04-Апр-16 20:00 (спустя 22 дня)

[Цитировать] 

где б 2-4 сезоны найти... а то 1й есть, 5 и 6 тока.
[Профиль]  [ЛС] 

zhugermek

Стаж: 13 лет 10 месяцев

Сообщений: 83

zhugermek · 05-Май-16 22:30 (спустя 1 месяц 1 день)

[Цитировать] 

где раздаются 3-4 сезоны?
[Профиль]  [ЛС] 

maroseika72

Стаж: 9 лет 1 месяц

Сообщений: 2


maroseika72 · 22-Дек-16 23:04 (спустя 7 месяцев)

[Цитировать] 

Где бы найти английские субтитры
[Профиль]  [ЛС] 

GALINA81

Стаж: 4 года 2 месяца

Сообщений: 770


GALINA81 · 21-Июл-17 21:07 (спустя 6 месяцев)

[Цитировать] 

Хороший сериал. Пыталась смотреть оригинал - не пошло. Актеры все хороши, особенно нравится пара в бандане и берете. ГГ очень похож на солиста Maroon 5, чем мне и нравится. Сериал местами очень смешной. Спасибо.
[Профиль]  [ЛС] 

arsik2107

Стаж: 6 лет 2 месяца

Сообщений: 1


arsik2107 · 03-Сен-18 17:29 (спустя 1 год 1 месяц)

[Цитировать] 

Всем привет!!! Нужна скорость, помогите плиз!)))
[Профиль]  [ЛС] 

madridhan

Стаж: 9 лет 3 месяца

Сообщений: 20

madridhan · 08-Фев-19 11:56 (спустя 5 месяцев 4 дня)

[Цитировать] 

Привет всем! А подскажите, где-нибудь есть весь саундтрек из сериала?
[Профиль]  [ЛС] 

Gaudete

Стаж: 2 года 8 месяцев

Сообщений: 2

Gaudete · 13-Фев-19 15:08 (спустя 5 дней)

[Цитировать] 

Ваааааа, спасибо!) Единственный любимый российский сериал.
[Профиль]  [ЛС] 
 
Ответить
Loading...
Error