Убить дважды / Серии: 1-4 из 4 (Сергей Чекалов) [2013, криминал, драма, HDTV (1080i)]

Страницы:  1

Ответить
Автор
Сообщение

Gahan Dave

Top Seed 06* 1280r

Стаж: 9 лет 11 месяцев

Сообщений: 3514

Gahan Dave · 25-Мар-16 11:51 (2 года 2 месяца назад)

[Цитировать] 

Убить дважды

Год выпуска: 2013
Производство: "Star Media"
Жанр: криминал, драма
Продолжительность: 00:45:00
Субтитры: нет
Режиссёр: Сергей Чекалов
В ролях:
Виктория Исакова, Аня Иванова, Дмитрий Суржиков, Олег Савкин, Сергей Угрюмов, Ольга Лукьяненко, Сергей Радченко (III), Сергей Сипливый,
Вова Машук, Антон Письменный, Даниил Ан, Карина Разумовская, Алла Мартынюк, Заза Чантурия, Дмитрий Гаврилов (II)
Описание:
Мария Данилова живет счастливо: она замужем за бизнесменом Игорем, растит 6-летнюю дочь, Олесю. Мария владеет большим помещением в центре города, в котором содержит салон красоты. Здание стоит немалых денег, но для Марии это не просто недвижимость, а память об отце. У Игоря дела идут неважно: его фирма на грани банкротства. Кроме того, он задолжал приличную сумму ростовщику Корнилову. Чтобы рассчитаться с долгами и сохранить бизнес, Игорь просит жену продать салон.
Но Мария не собирается помогать мужу: накануне вечером она случайно узнает о том, что у него есть любовница. Разъяренный отказом Игорь уходит из дома. Во время ужина к Марии заходит ее сестра Тамара. Неожиданно Марии становится плохо, и она засыпает, а очнувшись, обнаруживает себя на полу в гостиной. Кругом беспорядок, на стенах чья-то кровь. Следствие обвиняет Марию в убийстве мужа, вскоре обнаруживается и его тело, вернее сожжённый труп, который невозможно опознать. Так Данилова оказывается в тюрьме.
Тамара удочеряет Олесю, и Мария передает сестре права на свой бизнес, чтобы дочка ни в чем не нуждалась. Через несколько месяцев Тамара продает салон и уезжает из города вместе с Олесей. Мария бежит из тюрьмы, чтобы восстановить справедливость и найти дочь. Вслед за ней пускается следователь Владислав Куликов, который с самого начала сомневается в виновности Даниловой. Марии предстоит пройти через массу тяжелых испытаний, чтобы доказать, что на самом деле она стала жертвой коварного плана Тамары и Игоря.
Все раздачи сериала
Возраст: 16+
Качество: HDTV (1080i)
Формат: TS
Видео кодек: AVC
Аудио кодек: MP2

Видео: AVC, 1920 х 1080 (16:9), 25,000 кадр/сек, 7 859 Кбит/сек, 0.152 bit/pixel
Аудио: MP2, 48000 Hz, 192 Kbps, 2 канала

MediaInfo
General
ID : 1 (0x1)
Complete name : D:\Раздачи\Убить дважды (1-4 серии из 4) HDTV (1080i)\Ubit.dvazhdy.01.2013.HDTV.1080i.ts
Format : MPEG-TS
File size : 2.75 GiB
Duration : 46mn 25s
Overall bit rate mode : Variable
Overall bit rate : 8 472 Kbps
Video
ID : 901 (0x385)
Menu ID : 90 (0x5A)
Format : AVC
Format/Info : Advanced Video Codec
Format profile : Main@L4
Format settings, CABAC : Yes
Format settings, ReFrames : 2 frames
Format settings, GOP : M=3, N=30
Codec ID : 27
Duration : 46mn 25s
Bit rate : 7 859 Kbps
Width : 1 920 pixels
Height : 1 080 pixels
Display aspect ratio : 16:9
Frame rate : 25.000 fps
Color space : YUV
Chroma subsampling : 4:2:0
Bit depth : 8 bits
Scan type : MBAFF
Scan type, store method : Interleaved fields
Scan order : Top Field First
Bits/(Pixel*Frame) : 0.152
Stream size : 2.55 GiB (93%)
Color range : Limited
Color primaries : BT.709
Transfer characteristics : BT.709
Matrix coefficients : BT.709
Audio
ID : 902 (0x386)
Menu ID : 90 (0x5A)
Format : MPEG Audio
Format version : Version 1
Format profile : Layer 2
Codec ID : 3
Duration : 46mn 25s
Bit rate mode : Constant
Bit rate : 192 Kbps
Channel(s) : 2 channels
Sampling rate : 48.0 KHz
Compression mode : Lossy
Stream size : 63.8 MiB (2%)
Language : Russian

Скриншоты сериала

Раздаю до первых 5-ти скачавших, на раздачи не возвращаюсь...
[Профиль]  [ЛС] 
 

vova0007

Стаж: 8 лет 11 месяцев

Сообщений: 59

vova0007 · 25-Мар-16 22:38 (спустя 10 часов)

[Цитировать] 

по названию и описанию как "Двойная опастность" ГолЛивУда
[Профиль]  [ЛС] 

bot · 01-Мар-18 19:44 (спустя 1 год 11 месяцев)

Тема была перенесена из форума Русские сериалы в форум Архив (Русские сериалы)
Сударыня
 
 
Ответить
Loading...
Error