Адрес РуТрекера для пользователей РФ - MainTracker.org

Расскажи друзьям:  

Чужие крылья / Сезон: 1 / Серии: 1-6 из 6 (Алексей Чистиков, Александр Фиронов) [2011, Приключения, военный, DVDRip]

Страницы:  1

Ответить
Автор
Сообщение

etti3232

Top Seed 01* 40r

Стаж: 7 лет 11 месяцев

Сообщений: 132

etti3232 · 05-Апр-16 08:57 (2 года назад, ред. 09-Апр-16 18:54)

Чужие крылья Год выпуска: 2011
Производство: Россия, "Star Media"
Жанр: Приключения, военный
Продолжительность: 6 x ~ 00:45:00
Субтитры: Нет
Режиссёр: Алексей Чистиков, Александр Фиронов
В ролях: Денис Рожков, Михаил Трухин, Глафира Тарханова, Елена Полякова, Андрей Егоров (I), Виталий Кищенко, Федя Смирнов, Сергей Сосновский, Константин Тополага, Иван Стебунов, Артём Ткаченко, Павел Степанов
Описание: Чудом избежавший трибунала летчик-истребитель Рудаков отправляется на опасное задание в тыл врага. Самолет Рудакова сбивают, но ему удается выжить и угнать с аэродрома вражеский Messerschmitt. Под прикрытием «чужих» крыльев Рудаков присоединяется к войне с фашистами в составе партизанского отряда. О том, что на «Мессере» летает советский летчик, становится известно оберштурмбанфюреру SS Катульскому. Однако, охоту на Рудакова начинает не только Катульский — приказ уничтожить его самолет отдает и второй секретарь обкома партии Кежаев, некогда пославший Рудакова под трибунал.
Доп. информация:
http://www.kinopoisk.ru/film/592128/

Все раздачи сериала
Сэмпл: http://multi-up.com/1096097
Качество: DVDRip
Формат: AVI
Видео кодек: XviD
Аудио кодек: MP3
Видео: XviD build 64, 704x400 (1.76:1), 25 fps, 1577 kbps avg, 0.22 bit/pixel
Аудио: MPEG Layer 3, 48 kHz, 2 ch, 128.00 kbps avg
Сторонней рекламы НЕТ !!!
MI
General
Complete name : F:\ФИЛЬМЫ РОССИЯ\Chuzhije.Krylja.2011.XviD.DVDRip\Chuzhije.Krylja.2011.XviD.DVDRip.(01.seriya)..avi
Format : AVI
Format/Info : Audio Video Interleave
File size : 552 MiB
Duration : 44mn 57s
Overall bit rate : 1 715 Kbps
Writing application : VirtualDubMod 1.5.10.3 | www.virtualdub-fr.org || (build 2550/release)
Writing library : VirtualDubMod build 2550/release
Video
ID : 0
Format : MPEG-4 Visual
Format profile : Advanced Simple@L5
Format settings, BVOP : 1
Format settings, QPel : No
Format settings, GMC : No warppoints
Format settings, Matrix : Custom
Codec ID : XVID
Codec ID/Hint : XviD
Duration : 44mn 57s
Bit rate : 1 578 Kbps
Width : 704 pixels
Height : 400 pixels
Display aspect ratio : 16:9
Frame rate : 25.000 fps
Color space : YUV
Chroma subsampling : 4:2:0
Bit depth : 8 bits
Scan type : Progressive
Compression mode : Lossy
Bits/(Pixel*Frame) : 0.224
Stream size : 507 MiB (92%)
Writing library : XviD 64
Audio
ID : 1
Format : MPEG Audio
Format version : Version 1
Format profile : Layer 3
Codec ID : 55
Codec ID/Hint : MP3
Duration : 44mn 57s
Bit rate mode : Constant
Bit rate : 128 Kbps
Channel(s) : 2 channels
Sampling rate : 48.0 KHz
Compression mode : Lossy
Stream size : 41.2 MiB (7%)
Alignment : Aligned on interleaves
Interleave, duration : 40 ms (1.00 video frame)
Interleave, preload duratio : 504 ms
Writing library : LAME3.98r
Encoding settings : -m s -V 4 -q 2 -lowpass 17 -b 128
Скриншоты
Download
Чтобы скачать .torrent файл необходима регистрация
Сайт не распространяет и не хранит электронные версии произведений, а лишь предоставляет доступ к создаваемому пользователями каталогу ссылок на торрент-файлы, которые содержат только списки хеш-сумм
[Профиль]  [ЛС] 
 

nornegest

Стаж: 9 лет 3 месяца

Сообщений: 94


nornegest · 06-Апр-16 10:27 (спустя 1 день 1 час)

[Цитировать] 

сюжет конечно полная хрень и ненаучная фантастика. но если не заморачиваться по поводу историзма и прочего,то посмотреть в принципе можно.
[Профиль]  [ЛС] 

vikkur71

Стаж: 4 года 8 месяцев

Сообщений: 4


vikkur71 · 16-Май-16 16:33 (спустя 1 месяц 10 дней)

[Цитировать] 

Спасибо! Великолепный фильм! Еще раз хотела пересмотреть и оставить себе на память!
[Профиль]  [ЛС] 

Balrog

Стаж: 11 лет 8 месяцев

Сообщений: 142

Balrog · 16-Май-16 20:49 (спустя 4 часа)

[Цитировать] 

Сюжетец бредовей некуда, а уж по части техники, так вообще полный аут. Какой ни будь паршивый комикс про Бэтмана и то будет реалистичней этой ненаучной фантастики.
[Профиль]  [ЛС] 

vladimirskniazevs

Стаж: 5 лет 9 месяцев

Сообщений: 21


vladimirskniazevs · 15-Май-17 17:16 (спустя 11 месяцев)

[Цитировать] 

Бред абсолютный! Чего стоит только эпизод, когда бравый советский лётчик на бреющем полёте выборочно расстреливает немцев в толпе
[Профиль]  [ЛС] 

V-Edinburgh

Стаж: 2 года 7 месяцев

Сообщений: 41

V-Edinburgh · 16-Май-17 19:50 (спустя 1 день 2 часа)

[Цитировать] 

Фильм не понравился, совсем плохо, осилил минут с десять. Денис Рожков лётчик, ну ментяра с палкой без мозгов хорошо вышло, куда же суёшься нормальных то людей играть. Тем более таких героев выигравших войну, просто стыдно.
[Профиль]  [ЛС] 

OVER KILL

Стаж: 8 лет 6 месяцев

Сообщений: 14

OVER KILL · 03-Апр-18 15:14 (спустя 10 месяцев)

[Цитировать] 

Хороший военный фильм про все тяготы военной жизни .
[Профиль]  [ЛС] 

ipati

Стаж: 7 лет 9 месяцев

Сообщений: 104


ipati · 16-Апр-18 21:52 (спустя 13 дней)

[Цитировать] 

Мессер 262 на постере. Реактивный. Ага, ща.... Уже хочется удалить фильм с винта даже не скачав его.
[Профиль]  [ЛС] 
 
Ответить
Loading...
Error