Адрес РуТрекера для пользователей РФ - MainTracker.org

Расскажи друзьям:  

Пуанты для Плюшки / Серии: 1 - 4 (4) (Вероника Самсонова) [2016, мелодрама, WEBRip]

Страницы:  1

Ответить
Автор
Сообщение

Сме_ша_рик

Moderator

Стаж: 9 лет 7 месяцев

Сообщений: 1670

Сме_ша_рик · 17-Апр-16 21:36 (2 года 2 месяца назад)

Пуанты для Плюшки
Год выпуска: 2016
Производство: Россия, "Марс Медиа"
Жанр: мелодрама
Продолжительность: 00:44:00
Субтитры: Нет
Режиссёр: Вероника Самсонова
В ролях: Дарья Калмыкова, Прохор Дубравин, Ярослава Базаева, Ольга Дыховичная, Антон Васильев , Олеся Железняк, Ёла Санько, Сергей Фролов, Михаил Богдасаров, Анжелика (Лика) Рулла, Лидия Арефьева, Игорь Ларин
Описание: Несколько лет назад Наташа была балериной. Теперь же она весит больше 90 кг, а муж называет ее «Плюшкой» – как из-за лишнего веса, так и из-за пристрастия к сладостям «от Сергеича». Съедая любимую плюшку, она нет-нет да пожалуется нарисованному на упаковке «Сергеичу» на скучную работу, отсутствие детей, неработающего мужа. И Сергеич всегда ее понимает.После встречи с бывшей наставницей жизнь Наташи круто меняется – ей предлагают преподавать балет. После первого же занятия Наташа встречает настоящего Сергеича – он пришел за своей дочкой, которая занимается в ее группе. И скоро Наташа понимает, что это – настоящая любовь. Но что ей делать с мужем и планами завести ребенка, а также со своими комплексами и лишними килограммами?
Все раздачи сериала: http://1.maintracker.org/forum/tracker.php?f=9&nm=%EF%F3%E0%ED%F2%FB+%E4%EB%FF+%EF%EB%FE%F8%EA%E8
Сэмпл: https://www.sendspace.com/file/nieced
Качество: WEBRip
Формат: AVI
Видео кодек: XviD
Аудио кодек: AC3
Видео: XVID; 1685 Кбит/сек; 720х400 (16:9); 25,000 кадров/сек; Бит/(Пиксели*Кадры) 0.234
Аудио: AC-3; 192 Кбит/сек; 2 канала; 48,0 КГц
MI
Общее
Полное имя : E:\закачки\пуанты [rutracker.org]\Пуанты для Плюшки 1.avi
Формат : AVI
Формат/Информация : Audio Video Interleave
Размер файла : 612 Мбайт
Продолжительность : 45 м.
Общий поток : 1887 Кбит/сек
Программа кодирования : VirtualDubMod 1.5.10.2 (build 2540/release)
Библиотека кодирования : VirtualDubMod build 2540/release
Видео
Идентификатор : 0
Формат : MPEG-4 Visual
Профиль формата : Advanced Simple@L5
Параметр BVOP формата : 1
Параметр QPel формата : Нет
Параметр GMC формата : Без точки перехода
Параметр матрицы формата : Default (H.263)
Идентификатор кодека : XVID
Идентификатор кодека/Подсказка : XviD
Продолжительность : 45 м.
Битрейт : 1685 Кбит/сек
Ширина : 720 пикселей
Высота : 400 пикселей
Соотношение сторон : 16:9
Частота кадров : 25,000 кадров/сек
Цветовое пространство : YUV
Субдискретизация насыщенности : 4:2:0
Битовая глубина : 8 бит
Тип развёртки : Прогрессивная
Метод сжатия : С потерями
Бит/(Пиксели*Кадры) : 0.234
Размер потока : 547 Мбайт (89%)
Библиотека кодирования : XviD 1.2.1 (UTC 2008-12-04)
Аудио
Идентификатор : 1
Формат : AC-3
Формат/Информация : Audio Coding 3
Расширение режима : CM (complete main)
Параметр Endianness формата : Big
Идентификатор кодека : 2000
Продолжительность : 45 м.
Вид битрейта : Постоянный
Битрейт : 192 Кбит/сек
Каналы : 2 канала
Расположение каналов : Front: L R
Частота : 48,0 КГц
Битовая глубина : 16 бит
Метод сжатия : С потерями
Размер потока : 62,3 Мбайт (10%)
Выравнивание : Соединение по промежуткам
Продолжительность промежутка : 40 мс. (1,00 видеокадр)
Время предзагрузки промежутка : 512 мс.
Скриншоты
Релиз Сме_ша_рик
Download
Чтобы скачать .torrent файл необходима регистрация
Сайт не распространяет и не хранит электронные версии произведений, а лишь предоставляет доступ к создаваемому пользователями каталогу ссылок на торрент-файлы, которые содержат только списки хеш-сумм
[Профиль]  [ЛС] 
 

Cittyman

Стаж: 9 лет 11 месяцев

Сообщений: 172


Cittyman · 16-Апр-18 06:48 (спустя 1 год 11 месяцев)

[Цитировать] 

На раздаче кто-нить будет?
[Профиль]  [ЛС] 
 
Ответить
Loading...
Error