Кухня / Сезон: 2 / Серии: 1-20 из 20 (Дмитрий Дьяченко) [2013, Комедия, DVDRip]

Страницы:  1

Ответить
Автор
Сообщение

Сибиряк777

Top Seed 05* 640r

Стаж: 10 лет 1 месяц

Сообщений: 2949

Сибиряк777 · 24-Апр-16 23:12 (2 года 5 месяцев назад)

Кухня

Год выпуска: 2013
Производство: YBW Group по заказу СTC
Жанр: Комедия
Продолжительность: ~ 00:23:00
Субтитры: нет
Режиссёр: Дмитрий Дьяченко
В ролях: Дмитрий Назаров, Дмитрий Нагиев, Елена Подкаминская, Марина Могилевская, Марк Богатырёв, Виктор Хориняк, Ольга Кузьмина
Описание: Виктор Баринов – лучший шеф-повар лучшего ресторана Москвы, считает себя Богом на своей кухне. И даже конкуренты не могут с этим не согласиться. Богам разрешено все! Поэтому Баринов не отказывает себе в удовольствии угоститься хорошим коньячком - сверх меры, позволяет себе быть азартным – без тормозов, и подрезает крылья своим кухонным архангелам – без жалости. В пекло кухни Баринова, как мотылек на огонь, попадает недавно демобилизовавшийся из армии Максим Лавров. Максим с детства бредил кулинарией и с успехом отслужил на солдатской кухне, где его солянка приравнивалась к боекомплекту. Кулинарные грезы Максима регулярно перемежаются с грезами по представительницам прекрасного пола, для которых у Лаврова тоже есть свои «рецепты». Однако, реальность такова, что для того, чтобы пекло кухни сделалось для него раем, Максиму нужно добиться признания коллег, которые не упускают шанса разыграть новенького; любви публики, которая страх как привередлива; уважения Шефа, что практически невозможно, и, главное, – стать Мастером.

Все раздачи сериала
Качество: DVDRip
Формат: AVI
Видео кодек: XviD
Аудио кодек: AC3
Видео: 720x400 (16:9), 25.000 fps, XviD build 65, 1993 Kbps, 0.27 bit/pixel
Аудио: 48 kHz, AC3 Dolby Digital, 2/0 (L,R) ch, ~192.00 kbps avg

MI
General
Complete name : Downloads\Кухня.(2 сезон).2012.DVDRip
Format : AVI
Format/Info : Audio Video Interleave
File size : 373 MiB
Duration : 23mn 45s
Overall bit rate : 2 195 Kbps
Writing application : VirtualDubMod 1.5.10.3 | www.virtualdub-fr.org || (build 2550/release)
Writing library : VirtualDubMod build 2550/release
Video #0
ID : 0
Format : MPEG-4 Visual
Format profile : Advanced [email protected]
Format settings, BVOP : 1
Format settings, QPel : No
Format settings, GMC : No warppoints
Format settings, Matrix : Custom
Codec ID : XVID
Codec ID/Hint : XviD
Duration : 23mn 45s
Bit rate : 1 993 Kbps
Width : 720 pixels
Height : 400 pixels
Display aspect ratio : 16:9
Frame rate : 25.000 fps
Color space : YUV
Chroma subsampling : 4:2:0
Bit depth : 8 bits
Scan type : Progressive
Compression mode : Lossy
Bits/(Pixel*Frame) : 0.277
Stream size : 339 MiB (91%)
Writing library : XviD 65
Audio #1
ID : 1
Format : AC-3
Format/Info : Audio Coding 3
Mode extension : CM (complete main)
Format settings, Endianness : Big
Codec ID : 2000
Duration : 23mn 45s
Bit rate mode : Constant
Bit rate : 192 Kbps
Channel(s) : 2 channels
Channel positions : Front: L R
Sampling rate : 48.0 KHz
Bit depth : 16 bits
Compression mode : Lossy
Stream size : 32.6 MiB (9%)
Alignment : Split accross interleaves
Interleave, duration : 40 ms (1.00 video frame)
Interleave, preload duration : 500 ms
Скриншоты



Примечание: Скорость инета маленькая, раздаю медленно. Поэтому без криков.
Download
Чтобы скачать .torrent файл необходима регистрация
Сайт не распространяет и не хранит электронные версии произведений, а лишь предоставляет доступ к создаваемому пользователями каталогу ссылок на торрент-файлы, которые содержат только списки хеш-сумм
[Профиль]  [ЛС] 
 

Джулия-Я

Стаж: 4 года 1 месяц

Сообщений: 1


Джулия-Я · 11-Май-16 23:06 (спустя 16 дней, ред. 11-Май-16 23:06)

[Цитировать] 

Ребята, а 3 и 4 сезон есть? что-то не вижу ((
[Профиль]  [ЛС] 

Сибиряк777

Top Seed 05* 640r

Стаж: 10 лет 1 месяц

Сообщений: 2949

Сибиряк777 · 11-Май-16 23:29 (спустя 22 мин.)

[Цитировать] 

Джулия-Я
Их нету на сайте. Тока 1, 2, 5, 6 сезоны
[Профиль]  [ЛС] 

Kostia_aitsoK

Стаж: 10 лет 9 месяцев

Сообщений: 41

Kostia_aitsoK · 28-Май-16 21:06 (спустя 16 дней)

[Цитировать] 

Ребятки, а третьего сезона нет?
[Профиль]  [ЛС] 

Mr.Semkin

Стаж: 8 лет 9 месяцев

Сообщений: 66

Mr.Semkin · 20-Сен-18 14:16 (спустя 2 года 3 месяца)

[Цитировать] 

Классный сериал!
[Профиль]  [ЛС] 
 
Ответить
Loading...
Error