Разведчицы / Серии: 1-12 из 12 (Феликс Герчиков) [2013, драма, военный, DVDRip]

Страницы:  1

Ответить
Автор
Сообщение

Nat852

RG Русские сериалы

Стаж: 8 лет 5 месяцев

Сообщений: 830

Nat852 · 20-Июл-16 14:33 (2 года 2 месяца назад, ред. 11-Май-17 20:24)

Разведчицы
Год выпуска: 2013
Производство: компания "Росмедиа Продакшн"
Жанр: драма, военный
Продолжительность: 00:50:00
Субтитры: нет
Режиссёр: Феликс Герчиков
В ролях: Светлана Иванова, Светлана Устинова, Владимир Вдовиченков, Ирина Апексимова, Евгений Пронин, Анатолий Руденко, Николай Добрынин, Кирилл Жандаров, Лянка Грыу, Виктор Вержбицкий, Виталий Коваленко
Описание: О драматическом переплетении судеб двух девушек-разведчиц в годы Второй мировой. Арина Прозоровская – идеалистка, убежденная комсомолка, выросшая в интеллигентной семье. Зоя Величко – деревенская девушка, дочь репрессированного кулака, волей судеб оказавшаяся в уголовной среде и набравшаяся там некоторого цинизма. Незадолго до войны обе девушки оказываются в разведшколе, которой руководит опытный разведчик майор Воротынников. Обстоятельства, при которых девушки начинают учебу, весьма трагические. На Арине "висит" обвинение в измене Родине, и служба для нее единственный шанс оправдаться. Зою обвиняют в убийстве матери Арины, которое произошло незадолго до того, как девушки попали в разведшколу. И хотя Зоя не совершала убийства, и даже пыталась помешать ему, доказательств у нее нет. Поэтому для Зои работа на государство – также единственная возможность избежать наказания.
Доп. информация: автор рипа avproh, реклама отсутствует
Все раздачи сериала:
Разведчицы

Качество: DVDRip
Формат: AVI
Видео кодек: XviD
Аудио кодек: AC3
Видео: MPEG-4 Visual, ~2000 Кбит/сек, 720х400, 25 кадр/с, 0,278 bit/pixel
Аудио: АС3, 48 kHz, 6 ch, 448 Кбит/с
MI
Общее
Полное имя : C:\otkat\Видео\Razvedchitsy.2013.O.DVDRip_[New-Team]_by_avproh\01.avi
Формат : AVI
Формат/Информация : Audio Video Interleave
Размер файла : 894 Мбайт
Продолжительность : 50 м.
Общий поток : 2457 Кбит/сек
Программа кодирования : VirtualDubMod 1.5.10.3 | www.virtualdub-fr.org || (build 2550/release)
Библиотека кодирования : VirtualDubMod build 2550/release
Видео
Идентификатор : 0
Формат : MPEG-4 Visual
Профиль формата : Advanced [email protected]
Параметр BVOP формата : 1
Параметр QPel формата : Нет
Параметр GMC формата : Без точки перехода
Параметр матрицы формата : Выборочная
Идентификатор кодека : XVID
Идентификатор кодека/Подсказка : XviD
Продолжительность : 50 м.
Битрейт : 1999 Кбит/сек
Ширина : 720 пикселей
Высота : 400 пикселей
Соотношение сторон : 16:9
Частота кадров : 25,000 кадров/сек
Цветовое пространство : YUV
Субдискретизация насыщенности : 4:2:0
Битовая глубина : 8 бит
Тип развёртки : Прогрессивная
Метод сжатия : С потерями
Бит/(Пиксели*Кадры) : 0.278
Размер потока : 727 Мбайт (81%)
Библиотека кодирования : XviD 73
Аудио
Идентификатор : 1
Формат : AC-3
Формат/Информация : Audio Coding 3
Расширение режима : CM (complete main)
Параметр Endianness формата : Big
Идентификатор кодека : 2000
Продолжительность : 50 м.
Вид битрейта : Постоянный
Битрейт : 448 Кбит/сек
Каналы : 6 каналов
Расположение каналов : Front: L C R, Side: L R, LFE
Частота : 48,0 КГц
Частота кадров : 31,250 кадров/сек (1536 spf)
Метод сжатия : С потерями
Размер потока : 163 Мбайт (18%)
Выравнивание : Разделение по промежуткам
Продолжительность промежутка : 40 мс. (1,00 видеокадр)
Время предзагрузки промежутка : 500 мс.
Download
Чтобы скачать .torrent файл необходима регистрация
Сайт не распространяет и не хранит электронные версии произведений, а лишь предоставляет доступ к создаваемому пользователями каталогу ссылок на торрент-файлы, которые содержат только списки хеш-сумм
[Профиль]  [ЛС] 
 

Victor-470uks

Стаж: 8 лет 1 месяц

Сообщений: 172

Victor-470uks · 28-Июл-16 12:12 (спустя 7 дней)

[Цитировать] 

спасибо , понравился. Артисты великолепные. Сюжет интересный.
[Профиль]  [ЛС] 

Baka777

Стаж: 11 лет 7 месяцев

Сообщений: 249

Baka777 · 17-Ноя-16 01:21 (спустя 3 месяца 19 дней)

[Цитировать] 

Даже советский разведчик может быть человеком!
[Профиль]  [ЛС] 

ColyanSUN

Стаж: 11 лет 4 месяца

Сообщений: 632

ColyanSUN · 10-Апр-17 16:41 (спустя 4 месяца 23 дня, ред. 22-Янв-18 05:40)

[Цитировать] 

Пересмотрел с удовольствием. Неплохая художественная военная драма
[Профиль]  [ЛС] 

sanek2123

Стаж: 7 лет 8 месяцев

Сообщений: 253


sanek2123 · 18-Апр-17 23:47 (спустя 8 дней)

[Цитировать] 

3 серия,25 минута-немец выхватывает из сапога штык-нож и бьет им разведчицу,следующий кадр-в животе у разведчицы торчит какой то кухонный самопальный ножик....
[Профиль]  [ЛС] 

MacDuck

Стаж: 9 лет 11 месяцев

Сообщений: 211

MacDuck · 09-Май-17 19:08 (спустя 20 дней)

[Цитировать] 

Опять бабье прославляют. Такое ощущение, что войну бабы выиграли.
[Профиль]  [ЛС] 

Nat852

RG Русские сериалы

Стаж: 8 лет 5 месяцев

Сообщений: 830

Nat852 · 11-Май-17 20:29 (спустя 2 дня 1 час)

[Цитировать] 

Что-то я не совсем поняла, зачем брать и одну раздачу переносить в другой раздел, вторую при этом оставляя в сериалах?..
[Профиль]  [ЛС] 

mpv777

Admin gray

Стаж: 10 лет 5 месяцев

Сообщений: 25226

mpv777 · 11-Май-17 22:56 (спустя 2 часа 26 мин.)

[Цитировать] 

Nat852
Переносилось по одному варианту рипа, как правило.
[Профиль]  [ЛС] 

Nat852

RG Русские сериалы

Стаж: 8 лет 5 месяцев

Сообщений: 830

Nat852 · 12-Май-17 18:03 (спустя 19 часов, ред. 12-Май-17 18:04)

[Цитировать] 

mpv777 писал(а):
73093729Переносилось по одному варианту рипа, как правило.
Ну, в каталоге сериалов теперь ряд ссылок криво работает, нужно переделывать, т.к. они делались с указанием раздела. И в фильмографиях.
И с поиском стало сложнее. Если не выбирать раздел, то зачастую вываливается еще куча всего помимо фильма, а поиском по нескольким разделам не все умеют пользоваться.
Я бы еще поняла, если бы все военные были перенесены в один раздел.
[Профиль]  [ЛС] 

mpv777

Admin gray

Стаж: 10 лет 5 месяцев

Сообщений: 25226

mpv777 · 12-Май-17 18:06 (спустя 2 мин.)

[Цитировать] 

Nat852
Раздел же временный, так что ничего страшного.
[Профиль]  [ЛС] 

Nat852

RG Русские сериалы

Стаж: 8 лет 5 месяцев

Сообщений: 830

Nat852 · 12-Май-17 18:18 (спустя 11 мин.)

[Цитировать] 

mpv777 писал(а):
73097836Nat852
Раздел же временный, так что ничего страшного.
Потом назад раскидают?
[Профиль]  [ЛС] 

mpv777

Admin gray

Стаж: 10 лет 5 месяцев

Сообщений: 25226

mpv777 · 12-Май-17 19:08 (спустя 50 мин.)

[Цитировать] 

Nat852
Да, в конце мая.
[Профиль]  [ЛС] 

ss72

Стаж: 8 лет 10 месяцев

Сообщений: 46


ss72 · 03-Окт-17 16:36 (спустя 4 месяца 21 день)

[Цитировать] 

такой сериал испоганили этим чмошником руденко )) ему тока пи..олизов в соплераздирающих мелодрамах играть
[Профиль]  [ЛС] 

tyazelyi

Стаж: 2 года 6 месяцев

Сообщений: 9


tyazelyi · 22-Янв-18 04:58 (спустя 3 месяца 18 дней)

[Цитировать] 

всё портят актрисы.Никакие,что лицами,что игрой.Смотришь и морщишься ,не осилил
[Профиль]  [ЛС] 

manbak

Стаж: 8 лет 11 месяцев

Сообщений: 110

manbak · 09-Июн-18 17:25 (спустя 4 месяца 18 дней)

[Цитировать] 

Кто мыкнул одну плёнку!? Было 15 , передали 14!?
[Профиль]  [ЛС] 

Upliner

Стаж: 8 лет 7 месяцев

Сообщений: 7


Upliner · 10-Июл-18 00:10 (спустя 1 месяц)

[Цитировать] 

Как же достал закадровый перевод в таких фильмах! Лучше б как на западе субтитры делали...
[Профиль]  [ЛС] 

kerrik1

Стаж: 9 лет 1 месяц

Сообщений: 2


kerrik1 · 11-Окт-18 18:36 (спустя 3 месяца 1 день)

[Цитировать] 

Цитата: Как же достал закадровый перевод в таких фильмах! Лучше б как на западе субтитры делали...
Насколько я понимаю, на украине запрещены русские сериалы... Какие могут быть претензии?
[Профиль]  [ЛС] 
 
Ответить
Loading...
Error