Адрес РуТрекера для пользователей РФ - 11.MainTracker.org

Расскажи друзьям:  

Командир эскадрильи / Wing Commander (Крис Робертс / Chris Roberts) [1999, США, Люксембург, Фантастический боевик, BDRip] AVO (Александр Кашкин (Первомайский))

Страницы:  1

Ответить
Автор
Сообщение

edich2

Top Seed 07* 2560r

Стаж: 12 лет

Сообщений: 17503

edich2 · 22-Июл-16 15:13 (2 года 8 месяцев назад)

Командир эскадрильи / Wing Commander
«At the edge of our universe, all hell is about to break loose»
Страна: США, Люксембург
Жанр: Фантастический боевик
Год выпуска: 1999
Продолжительность: 01:40:13
Перевод: Авторский (одноголосый закадровый) Александр Кашкин (Первомайский)
Субтитры: нет
Режиссер: Крис Робертс / Chris Roberts
В ролях: Фредди Принц мл., Саффрон Берроуз, Мэттью Лиллард, Чеки Карио, Юрген Прохнов, Дэвид Суше, Дэвид Уорнер, Джинни Холдер, Хью Куарши, Кен Бонс
Описание: Этот фильм — экранизация знаменитой компьютерной игры «Wing Commander». Десант с земного космического корабля сталкивается со смертоносным оружием в безнадежной битве за будущее человечества. Враждебная инопланетная раса килратхов обнаружила координаты Земли и направляется в Солнечную Систему с планами тотального уничтожения.
И вот настало время для двух молодых отчаянных пилотов космических истребителей прорвать оборону килратхов и спасти свою планету от орд захватчиков, встреченных землянами в глубинах космоса.
Доп. информация: Дорожка с А. Кашкиным синхронизирована и наложена ale_x2008 при помощи Sony Vegas и VirtualDubMod.
За оцифрованную с VHS дорожку благодарим - d_rocker

Релиз
Сэмпл: https://yadi.sk/i/p7aNKnR6tXps9
Качество видео: BDRip [Wing.Commander.1999.BDRemux HDTracker by delo2006]
Формат видео: AVI
Видео: XviD build 73, 720x304 (2.37:1), 23.976 fps, 1752 kbps avg, 0.33 bit/pixel
Аудио: AC3 Dolby Digital, 48000Hz, 2/0 (L,R) ch (mono), 192.00 kbps avg
MediaInfo
Командир эскадрильи - Wing Commander [by ale_x2008].avi
Format : AVI
Format/Info : Audio Video Interleave
File size : 1.37 GiB
Duration : 1h 40mn
Overall bit rate : 1 954 Kbps
Movie name : Командир эскадрильи - Wing Commander [by ale_x2008]
Director : by ale_x2008
Writing application : VirtualDubMod 1.5.10.3 (build 2550/release)
Copyright : Edich2
Comment : RuTracker.org
Video
ID : 0
Format : MPEG-4 Visual
Format profile : Advanced [email protected]
Format settings, BVOP : 2
Format settings, QPel : No
Format settings, GMC : No warppoints
Format settings, Matrix : Custom
Codec ID : XVID
Codec ID/Hint : XviD
Duration : 1h 40mn
Bit rate : 1 753 Kbps
Width : 720 pixels
Height : 304 pixels
Display aspect ratio : 2.35:1
Frame rate : 23.976 (23976/1000) fps
Color space : YUV
Chroma subsampling : 4:2:0
Bit depth : 8 bits
Scan type : Progressive
Compression mode : Lossy
Bits/(Pixel*Frame) : 0.334
Stream size : 1.23 GiB (90%)
Writing library : XviD 73
Audio
ID : 1
Format : AC-3
Format/Info : Audio Coding 3
Mode extension : CM (complete main)
Format settings, Endianness : Big
Codec ID : 2000
Duration : 1h 40mn
Bit rate mode : Constant
Bit rate : 192 Kbps
Channel(s) : 2 channels
Channel positions : Front: L R
Sampling rate : 48.0 KHz
Frame rate : 31.250 fps (1536 spf)
Compression mode : Lossy
Stream size : 138 MiB (10%)
Alignment : Split accross interleaves
Interleave, duration : 42 ms (1.00 video frame)
Interleave, preload duratio : 500 ms
Скриншоты
Download
Чтобы скачать .torrent файл необходима регистрация
Сайт не распространяет и не хранит электронные версии произведений, а лишь предоставляет доступ к создаваемому пользователями каталогу ссылок на торрент-файлы, которые содержат только списки хеш-сумм
[Профиль]  [ЛС] 
 

edich2

Top Seed 07* 2560r

Стаж: 12 лет

Сообщений: 17503

edich2 · 22-Июл-16 15:13 (спустя 22 сек.)

[Цитировать] 

ФИЛЬМ С ПЕРЕВОДОМ КАШКИНА ВПЕРВЫЕ НА ТРЕКЕРЕ.
[Профиль]  [ЛС] 
 
Ответить
Loading...
Error