Адрес РуТрекера для пользователей РФ - 11.MainTracker.org

Расскажи друзьям:  

(Rock, Electronic) [CD] Виртуальная Оборона (Андрей «Дюша» Романов) - Аквариум MIX - 1997 (2004), bonus tracks, FLAC (image+.cue), lossless

Страницы:  1

Ответить
Автор
Сообщение

Приблизительный Воин

Стаж: 2 года 10 месяцев

Сообщений: 260

Приблизительный Воин · 28-Сен-16 12:14 (2 года 8 месяцев назад)

Виртуальная Оборона / ÅКВАРИУМ MIX
Жанр: Rock, Electronic
Носитель: CD
Страна-производитель диска: Россия
Год издания: 2004
Издатель (лейбл): Музыкальный Экспресс
Серия: Антология Дюши Романова
Номер по каталогу: МЭ110
Страна исполнителя (группы): Россия
Аудиокодек: FLAC (*.flac)
Тип рипа: image+.cue
Битрейт аудио: lossless
Продолжительность: 01:02:45
Источник (релизер): собственный рип
Наличие сканов в содержимом раздачи: да
Треклист:
01. 10 стрел (5:23)
02. Гиневер (5:18)
03. Рок-н-ролл мертв # 1 (3:58)
04. 14 (5:02)
05. Под небом голубым # 1 (3:23)
06. Крюкообразность (4:41)
07. Поезд в огне (5:19)
08. Dead of The King Arthur (3:55)
09. Марш (3:23)
10. Сестра (7:43)
11. Рок-н-ролл мертв # 2 (4:49)
12. Под небом голубым # 2 (3:17)
13. Дитя рассвета (0:45)
Bonus Tracks
14. Гиневер (версия Vermichelli Orchestra) (2:14)
15. Моя игра (демо-запись Аквариума 1980 г.) (3:37)
Лог создания рипа
Exact Audio Copy V1.0 beta 4 from 7. December 2014
EAC extraction logfile from 11. February 2015, 15:25
Виртуальная Оборона / Аквариум MIX
Used drive : SlimtypeDVD A DS8A8SH Adapter: 1 ID: 0
Read mode : Secure
Utilize accurate stream : Yes
Defeat audio cache : Yes
Make use of C2 pointers : No
Read offset correction : 6
Overread into Lead-In and Lead-Out : No
Fill up missing offset samples with silence : Yes
Delete leading and trailing silent blocks : No
Null samples used in CRC calculations : Yes
Used interface : Native Win32 interface for Win NT & 2000
Used output format : User Defined Encoder
Selected bitrate : 896 kBit/s
Quality : High
Add ID3 tag : No
Command line compressor : C:\Program Files (x86)\Exact Audio Copy\FLAC\FLAC.EXE
Additional command line options : -V -8 -T "Date=%year%" -T "Genre=%genre%" %source%
TOC of the extracted CD
Track | Start | Length | Start sector | End sector
---------------------------------------------------------
1 | 0:00.00 | 5:22.62 | 0 | 24211
2 | 5:22.62 | 5:17.49 | 24212 | 48035
3 | 10:40.36 | 3:58.16 | 48036 | 65901
4 | 14:38.52 | 5:01.61 | 65902 | 88537
5 | 19:40.38 | 3:23.12 | 88538 | 103774
6 | 23:03.50 | 4:40.69 | 103775 | 124843
7 | 27:44.44 | 5:19.03 | 124844 | 148771
8 | 33:03.47 | 3:54.51 | 148772 | 166372
9 | 36:58.23 | 3:23.09 | 166373 | 181606
10 | 40:21.32 | 7:42.52 | 181607 | 216308
11 | 48:04.09 | 4:48.50 | 216309 | 237958
12 | 52:52.59 | 3:16.60 | 237959 | 252718
13 | 56:09.44 | 0:44.57 | 252719 | 256075
14 | 56:54.26 | 2:14.35 | 256076 | 266160
15 | 59:08.61 | 3:36.40 | 266161 | 282400
Range status and errors
Selected range
Filename D:\Аквариум и БГ\(1997) Виртуальная Оборона - Аквариум MIX [МЭ110]\Виртуальная Оборона - Аквариум MIX.wav
Peak level 100.0 %
Extraction speed 2.0 X
Range quality 100.0 %
Test CRC D0D9848D
Copy CRC D0D9848D
Copy OK
No errors occurred
AccurateRip summary
Track 1 accurately ripped (confidence 1) [0864A1E2] (AR v1)
Track 2 accurately ripped (confidence 1) [2C6F9CF4] (AR v1)
Track 3 accurately ripped (confidence 1) [87A99690] (AR v1)
Track 4 accurately ripped (confidence 1) [75143C83] (AR v1)
Track 5 accurately ripped (confidence 1) [529737DA] (AR v1)
Track 6 accurately ripped (confidence 1) [4C1AE260] (AR v1)
Track 7 accurately ripped (confidence 1) [D57BC20B] (AR v1)
Track 8 accurately ripped (confidence 1) [111C3534] (AR v1)
Track 9 accurately ripped (confidence 1) [1BF1BC87] (AR v1)
Track 10 accurately ripped (confidence 1) [7F22C6E2] (AR v1)
Track 11 accurately ripped (confidence 1) [37320834] (AR v1)
Track 12 accurately ripped (confidence 1) [C57485EB] (AR v1)
Track 13 accurately ripped (confidence 1) [7404255D] (AR v1)
Track 14 accurately ripped (confidence 1) [89405EB0] (AR v1)
Track 15 accurately ripped (confidence 1) [A7338585] (AR v1)
All tracks accurately ripped
End of status report
---- CUETools DB Plugin V2.1.4
[CTDB TOCID: cc7AxM5gedLVxF_HgXqO3n4ZHPo-] disk not present in database
Submit result: cc7AxM5gedLVxF_HgXqO3n4ZHPo- has been uploaded
==== Log checksum BB88991C8B09E73D0EFCCEE67A44365CCB2F307321AA66D370C00201D42B7D3C ====

Доп. информация: Издание отличается от этого http://1.maintracker.org/forum/viewtopic.php?t=3074853 наличием бонус-треков.
Download
Чтобы скачать .torrent файл необходима регистрация
Сайт не распространяет и не хранит электронные версии произведений, а лишь предоставляет доступ к создаваемому пользователями каталогу ссылок на торрент-файлы, которые содержат только списки хеш-сумм
[Профиль]  [ЛС] 
 
 
Ответить
Loading...
Error