Адрес РуТрекера для пользователей РФ - MainTracker.org

Расскажи друзьям:  

Молодежка / Сезон: 1 / Серии: 1-40 из 40 + Фильм о фильме (2 серии) (Сергей Арланов) [2013, Драма, спорт, WEBRip]

Страницы:  1

Ответить
Автор
Сообщение

Сибиряк777

Top Seed 05* 640r

Стаж: 10 лет

Сообщений: 2909

Сибиряк777 · 24-Окт-16 23:57 (1 год 10 месяцев назад, ред. 25-Окт-16 00:02)

Молодежка «Наша игра - хоккей. Наша команда - 'Медведи'. Наша цель - 'Молодежка'!»
Год выпуска: 2013
Производство: Россия, ООО Арт Пикчерс Вижн при поддержке Континентальной Хоккейной Лиги
Жанр: Драма, спорт
Продолжительность: 00:48:00
Субтитры: Нет
Режиссёр: Сергей Арланов
В ролях: Серафима Низовская, Владимир Зайцев, Сергей Габриэлян, Денис Никифоров, Валентина Ананьина, Сергей Комаров (II), Михаил Жигалов, Фёдор Бондарчук, Анатолий Лобоцкий, Ксения Лаврова-Глинка, Макар Запорожский, Александр Соколовский, Влад Канопка, Илья Коробко, Игорь Огурцов, Анна Михайловская, Иван Жвакин, Мария Иващенко, Николай Добрынин, Игорь Арташонов, Андрей Новиков (IV), Виктория Таранец, Ольга Стрелецкая, Андрей Харыбин, Екатерина Молоховская, Нина Есина, Егор Федотов, Юлия Маргулис, Иван Дубровский, Владимир Чуприков, Иван Мулин
Описание: Молодежная хоккейная лига или «молодежка» — соревнование, в котором выступают молодежные команды, составленные из игроков в возрасте от 17 до 21 года. Именно чемпионат «молодежки» обеспечивает КХЛ (Континентальную Хоккейную Лигу) «свежей кровью» — талантливыми молодыми хоккеистами. «Медведи» никогда не были топ-командой молодежной лиги. Вратарь слишком умный, защита слишком вялая, а лидеры только и делают, что тянут одеяло на себя. Они умеют вместе выходить на площадку, но еще не умеют вместе играть... Но теперь все будет по-другому — за команду берется молодой тренер Сергей Макеев (Денис Никифоров). Когда-то он был звездой НХЛ, но после травмы завершил карьеру игрока и вернулся на родину. Перед новоиспеченным тренером стоит невыполнимая задача — выиграть чемпионат и создать команду первоклассных хоккеистов. Макеев должен превратить ребят в самых настоящих «медведей», которые порвут всех на пути к победе…Только сделать это совсем не просто, ведь у его игроков совсем другие интересы — учеба, друзья и, конечно, девушки. Да и менеджмент клуба не особо рад приходу слишком активного тренера…

Все раздачи сериала / Сэмпл
Качество: WEBRip
Формат: AVI
Видео кодек: DivX
Аудио кодек: AC3
Видео: 704x400 (16:9), 25.000 fps, DivX, 1497 Kbps, 0.21 bit/pixel
Аудио: 48 kHz, MP3, 2/0 (L,R) ch, ~192 kbps

Релиз-группа: Реклама отсутствует!
MI
General
Complete name : Downloads\Molodezhka
Format : AVI
Format/Info : Audio Video Interleave
File size : 579 MiB
Duration : 47mn 32s
Overall bit rate : 1 702 Kbps
Video #0
ID : 0
Format : MPEG-4 Visual
Format settings, BVOP : 1
Format settings, QPel : No
Format settings, GMC : No warppoints
Format settings, Matrix : Default (H.263)
Muxing mode : Packed bitstream
Codec ID : DX50
Codec ID/Hint : DivX 5
Duration : 47mn 32s
Bit rate : 1 497 Kbps
Width : 704 pixels
Height : 400 pixels
Display aspect ratio : 16:9
Frame rate : 25.000 fps
Color space : YUV
Chroma subsampling : 4:2:0
Bit depth : 8 bits
Scan type : Progressive
Compression mode : Lossy
Bits/(Pixel*Frame) : 0.213
Stream size : 509 MiB (88%)
Writing library : DivX 6.8.5 (UTC 2009-08-20)
Audio #1
ID : 1
Format : MPEG Audio
Format version : Version 1
Format profile : Layer 3
Mode : Joint stereo
Codec ID : 55
Codec ID/Hint : MP3
Duration : 47mn 32s
Bit rate mode : Constant
Bit rate : 192 Kbps
Channel(s) : 2 channels
Sampling rate : 48.0 KHz
Compression mode : Lossy
Stream size : 65.3 MiB (11%)
Alignment : Aligned on interleaves
Interleave, duration : 40 ms (1.00 video frame)
Interleave, preload duration : 408 ms
Скриншоты
Download
Чтобы скачать .torrent файл необходима регистрация
Сайт не распространяет и не хранит электронные версии произведений, а лишь предоставляет доступ к создаваемому пользователями каталогу ссылок на торрент-файлы, которые содержат только списки хеш-сумм
[Профиль]  [ЛС] 
 

kwachboba

Стаж: 10 лет 10 месяцев

Сообщений: 12

kwachboba · 26-Авг-17 14:21 (спустя 10 месяцев)

[Цитировать] 

ржака! анонс нового сезона молодежки, подхлеснул на просмотр сторой молодежки )
[Профиль]  [ЛС] 

байкер 5

Стаж: 10 лет 4 месяца

Сообщений: 181

байкер 5 · 07-Мар-18 22:05 (спустя 6 месяцев)

[Цитировать] 

На железном плеере не воспроизводится((
[Профиль]  [ЛС] 

jeank

Стаж: 11 лет 3 месяца

Сообщений: 341

jeank · 12-Июл-18 18:24 (спустя 4 месяца 4 дня)

[Цитировать] 

Казалось бы, что может привлечь в этом сериале, если не люблю темы про спорт, а особенно где подростковые проблемы и музыка (эти кусочки перематывал), но тут сумели сделать основной посыл настолько по-доброму и правильному, что почти невозможно было оторваться от просмотра.
Одиозный персонаж Казанцев вообще прекрасен, умудряется одновременно вызвать отвращение и восхищение.
Рекомендую всем - и молодняку, и гражданам в возрасте. Удовольствие получите гарантированно.
[Профиль]  [ЛС] 
 
Ответить
Loading...
Error