Адрес РуТрекера для пользователей РФ - MainTracker.org

Расскажи друзьям:  

Однажды в Одессе / Сезон: 2 / Серии: 1-12 из 12 (Андрей Бурлака, Ольга Бережная) [2016, комедия, WEBRip (1080p)]

Страницы:  1

Ответить
Автор
Сообщение

Gahan Dave

Top Seed 06* 1280r

Стаж: 9 лет 11 месяцев

Сообщений: 3514

Gahan Dave · 04-Ноя-16 18:43 (1 год 7 месяцев назад, ред. 05-Ноя-16 08:59)

Однажды в Одессе

Год выпуска: 2016
Производство: "Студия "Квартал-95""
Жанр: комедия
Продолжительность: 00:24:00
Субтитры: нет
Режиссёр: Андрей Бурлака, Ольга Бережная
В ролях:
Сергей Середа, Александр Станкевич, Григорий Гущин, Левон Назинян
Описание:
Это история о четверке друзей - Грише, Косте, Леве и Шуре - одесситов до мозга костей, живущих в одной коммунальной квартире.
Но в квартет закадычных друзей внезапно вмешивается очаровательная девушка Юля, которая приехала из другого города поступать в университет.
Юля вносит диссонанс в спокойную жизнь героев сериала, и конечно, ни один из ребят не остается равнодушным к новой замечательной соседке.
Все раздачи сериала
Возраст: 16+
Качество: WEBRip (1080p)
Формат: MKV
Видео кодек: AVC
Аудио кодек: AC3

Видео: AVC, 1920 х 1080 (16:9), 25,000 кадр/сек, 3 196 Кбит/сек, 0.062 bit/pixel
Аудио: AC3, 44000 Hz, 192 Kbps, 2 канала

MediaInfo
General
Unique ID : 65677076289697882305544011955663640856 (0x3168F1DDAAA4397089CB958B7D499918)
Complete name : D:\Раздачи\Однажды в Одессе (2 сезон 1-12 серии из 12) WEB-DL (1080p)\01.mkv
Format : Matroska
Format version : Version 4 / Version 2
File size : 627 MiB
Duration : 25mn 21s
Overall bit rate : 3 456 Kbps
Writing application : Lavf56.36.100
Writing library : Lavf56.36.100 / Lavf56.36.100
Video
ID : 1
Format : AVC
Format/Info : Advanced Video Codec
Format profile : High@L4
Format settings, CABAC : Yes
Format settings, ReFrames : 2 frames
Codec ID : V_MPEG4/ISO/AVC
Duration : 25mn 21s
Bit rate : 3 196 Kbps
Width : 1 920 pixels
Height : 1 080 pixels
Display aspect ratio : 16:9
Frame rate mode : Constant
Frame rate : 25.000 fps
Color space : YUV
Chroma subsampling : 4:2:0
Bit depth : 8 bits
Scan type : Progressive
Bits/(Pixel*Frame) : 0.062
Stream size : 580 MiB (92%)
Default : Yes
Forced : No
Color range : Limited
Color primaries : BT.709
Transfer characteristics : BT.709
Matrix coefficients : BT.709
Audio
ID : 2
Format : AC-3
Format/Info : Audio Coding 3
Mode extension : CM (complete main)
Format settings, Endianness : Big
Codec ID : A_AC3
Duration : 25mn 21s
Bit rate mode : Constant
Bit rate : 192 Kbps
Channel(s) : 2 channels
Channel positions : Front: L R
Sampling rate : 44.1 KHz
Frame rate : 28.711 fps (1536 spf)
Compression mode : Lossy
Stream size : 34.8 MiB (6%)
Language : unknown
Default : Yes
Forced : No

Скриншоты сериала

Раздаю до первых 5-ти скачавших, на раздачи не возвращаюсь...
Download
Чтобы скачать .torrent файл необходима регистрация
Сайт не распространяет и не хранит электронные версии произведений, а лишь предоставляет доступ к создаваемому пользователями каталогу ссылок на торрент-файлы, которые содержат только списки хеш-сумм
[Профиль]  [ЛС] 
 

vidik2

Top Seed 03* 160r

Стаж: 9 лет 7 месяцев

Сообщений: 1863

vidik2 · 18-Ноя-16 23:01 (спустя 14 дней)

[Цитировать] 

Ну и причем к украинскому сериалу его перенос в форум Русские сериалы?
Может быть есть смысл открыть форум Украинские сериалы?
[Профиль]  [ЛС] 

valtasarka

Стаж: 6 лет 11 месяцев

Сообщений: 24


valtasarka · 23-Июн-17 16:42 (спустя 7 месяцев)

[Цитировать] 

Жуткая чушь. Даже если сравнивать с их же сериалом Однажды в Полтаве. Так тот на 10 уровней выше будет. Особо раздражает, как одессита, весь этот высосанный якобы одесский юмор в каждой фразе. Ну, может, годов для 50-х прошлого столетия оно бы и прокатило и то не в таком неуместном, бессмысленном и чрезмерном каламбуре - но на сегодняшний день это все может вызвать разве что недоумение.
[Профиль]  [ЛС] 

ksynya

Стаж: 8 лет 10 месяцев

Сообщений: 20


ksynya · 03-Авг-17 22:23 (спустя 1 месяц 10 дней)

[Цитировать] 

Особенно раздражает, valtasarka, это "жуткая чушь" от якобы одессита. Сериал не пошлый, вполне смотрибельный, главное нет"одесских клоунов, типа valtasarka", поэтому смотрим, не напрягаемся и топим в Черном море valtasark-ок...
[Профиль]  [ЛС] 

alfaboss

Стаж: 7 лет 1 месяц

Сообщений: 29


alfaboss · 22-Сен-17 19:57 (спустя 1 месяц 18 дней)

[Цитировать] 

Весело. Не пошло. Одесский колоритный юмор.
[Профиль]  [ЛС] 

bore1

Стаж: 8 лет 5 месяцев

Сообщений: 5


bore1 · 12-Мар-18 15:43 (спустя 5 месяцев 19 дней)

[Цитировать] 

95 квартал? Зеленский? Нееет! Спасибо, мне говна не надо...
[Профиль]  [ЛС] 

касанна

Победители конкурсов

Стаж: 8 лет 5 месяцев

Сообщений: 7810

касанна · 12-Мар-18 23:10 (спустя 7 часов)

[Цитировать] 

Четыре парня в коммуналке, новенькая девушка.... Прямо, теория Большого Взрыва....
[Профиль]  [ЛС] 

zlotosalien

RG Games

Стаж: 8 лет 7 месяцев

Сообщений: 2616

zlotosalien · 31-Мар-18 00:12 (спустя 18 дней)

[Цитировать] 

bore1 писал(а):
7496989995 квартал? Зеленский? Нееет! Спасибо, мне говна не надо...
Как ни странно но, здесь нет политики. Я сам не восторге от квартала но, сериал зашел на ура.
[Профиль]  [ЛС] 
 
Ответить
Loading...
Error