Жена напрокат / Серии: 1-4 из 4 (Александр Созонов) [2016, мелодрама, WEBRip (1080p)]

Страницы:  1

Ответить
Автор
Сообщение

Gahan Dave

Top Seed 06* 1280r

Стаж: 10 лет 4 месяца

Сообщений: 3509

Gahan Dave · 19-Дек-16 20:14 (1 год 10 месяцев назад)

Жена напрокат

Год выпуска: 2016
Производство: "Эпик Медиа"
Жанр: мелодрама
Продолжительность: 00:45:00
Субтитры: нет
Режиссёр: Александр Созонов
В ролях:
Юлия Подозёрова, Алексей Морозов, Анна Потебня, Арсений Гусев, Даниил Коновалов, Михаил Химичев, Вячеслав Щенин, Ксения Теплова, Ирина Щенина
Описание:
Лена, ухоженная красотка тридцати пяти лет, вместе со своим богатым мужем путешествует по Волге на собственной яхте. Им приходится встать на вынужденный ремонт в городе Заволжске — полетела электропроводка. муж сходит на берег в поисках приключений, а Лена сталкивается с шокирующей российской действительностью в лице электрика Димы (под сорок, вдовец с тремя детьми). Раздраженная Лена срывает злость на Диме, и в итоге выталкивает его с яхты, не заплатив ни копейки. Поздно ночью она сама случайно падает за борт, пьяный муж этого не замечает, командуя «полный вперед» — после крупной ссоры он уверен, что Лена отправилась домой.
На следующий день Дима встречает в городской больнице Заволжска Лену с полной амнезией, которая тем не менее, качает права и скандалит с персоналом. Дима решает проучить эту дамочку. Он объявляет Лену своей женой и привозит ее домой. Если она считает себя хозяйкой жизни, пусть поработает хозяйкой у него на кухне. За те несколько дней, что она проведет в этом шумном доме, Лене предстоит научиться готовить и убираться, найти общий язык с младшими детьми, стать хорошей подругой для «дочери»-подростка. А главное — почувствовать себя частью большой семьи и встретить настоящую любовь в лице Димы — электрика, который так зло над ней пошутил.
Все раздачи сериала
Возраст: 12+
Качество: WEBRip (1080p)
Формат: MKV
Видео кодек: AVC
Аудио кодек: AC3

Видео: AVC, 1920 х 1080 (16:9), 25,000 кадр/сек, 3063 Кбит/сек, 0.059 bit/pixel
Аудио: AC3, 44100 Hz, 192 Kbps, 2 канала

MediaInfo
Общее
Уникальный идентификатор : 218737163420062891551488748088340933535 (0xA48F3ECBDB3F5731F8097B317B526B9F)
Полное имя : D:\Раздачи\Жена напрокат (1-4 серии из 4) WEB-DL (1080p)\01.Zena.naprokat.2016.WEB-Dl1080p.Files-x.mkv
Формат : Matroska
Версия формата : Version 4 / Version 2
Размер файла : 1,10 Гбайт
Продолжительность : 47 м. 31 с.
Общий поток : 3321 Кбит/сек
Программа кодирования : Lavf56.25.101
Библиотека кодирования : Lavf56.25.101 / Lavf56.25.101
Видео
Идентификатор : 1
Формат : AVC
Формат/Информация : Advanced Video Codec
Профиль формата : [email protected]
Параметр CABAC формата : Да
Параметр ReFrames формата : 2 кадра
Идентификатор кодека : V_MPEG4/ISO/AVC
Продолжительность : 47 м. 31 с.
Битрейт : 3063 Кбит/сек
Ширина : 1920 пикселей
Высота : 1080 пикселей
Соотношение сторон : 16:9
Режим частоты кадров : Постоянный
Частота кадров : 25,000 кадров/сек
Цветовое пространство : YUV
Субдискретизация насыщенности : 4:2:0
Битовая глубина : 8 бит
Тип развёртки : Прогрессивная
Бит/(Пиксели*Кадры) : 0.059
Размер потока : 1,02 Гбайт (92%)
Default : Да
Forced : Нет
Цветовой диапазон : Limited
Основные цвета : BT.709
Характеристики трансфера : BT.709
Коэффициенты матрицы : BT.709
Аудио
Идентификатор : 2
Формат : AC-3
Формат/Информация : Audio Coding 3
Расширение режима : CM (complete main)
Параметр Endianness формата : Big
Идентификатор кодека : A_AC3
Продолжительность : 47 м. 31 с.
Вид битрейта : Постоянный
Битрейт : 192 Кбит/сек
Каналы : 2 канала
Расположение каналов : Front: L R
Частота : 44,1 КГц
Частота кадров : 28,711 кадров/сек (1536 spf)
Метод сжатия : С потерями
Задержка видео : -40 мс.
Размер потока : 65,3 Мбайт (6%)
Default : Да
Forced : Нет

Скриншоты сериала

Раздаю до первых 5-ти скачавших, на раздачи не возвращаюсь...
Download
Чтобы скачать .torrent файл необходима регистрация
Сайт не распространяет и не хранит электронные версии произведений, а лишь предоставляет доступ к создаваемому пользователями каталогу ссылок на торрент-файлы, которые содержат только списки хеш-сумм
[Профиль]  [ЛС] 
 

orlovich1971

Стаж: 4 года 11 месяцев

Сообщений: 1177

orlovich1971 · 23-Дек-16 15:09 (спустя 3 дня)

[Цитировать] 

Жанр--скорее всего лирическая комедия,а не мелодрама.Качество отличное.Спасибо за работу.
[Профиль]  [ЛС] 

AlexYad

Стаж: 9 лет 4 месяца

Сообщений: 2


AlexYad · 24-Дек-16 13:30 (спустя 22 часа)

[Цитировать] 

старый полнометражный фильм "Человек за бортом"
[Профиль]  [ЛС] 

Lidia58

Стаж: 8 лет 6 месяцев

Сообщений: 1309

Lidia58 · 27-Дек-16 13:37 (спустя 3 дня)

[Цитировать] 

100% плагиат фильма за бортом своих мозгов не хватает вот и переделывают иностранные фильмы позор.
[Профиль]  [ЛС] 

dmitry_f

Стаж: 13 лет 3 месяца

Сообщений: 41


dmitry_f · 28-Дек-16 01:53 (спустя 12 часов)

[Цитировать] 

Оригинальный фильм отличный, эта подделка невероятно низкого сорта.
[Профиль]  [ЛС] 

stai63

Стаж: 8 лет 5 месяцев

Сообщений: 59


stai63 · 05-Янв-17 11:17 (спустя 8 дней, ред. 05-Фев-17 03:37)

[Цитировать] 

Lidia58 писал(а):
72113975100% плагиат фильма за бортом своих мозгов не хватает вот и переделывают иностранные фильмы позор.
Сударыня, не пишите чепухи!
Ремейки успешных популярных фильмов и телепередач уже давным давно делают по всему миру, адаптируя их на местный национальный лад. Голливуд и сам с большим успехом делает ремейки французских, итальянских, латиноамериканских и даже азиатских фильмов.
[Профиль]  [ЛС] 

Wаldo

Releaser

Стаж: 5 лет 11 месяцев

Сообщений: 681

Wаldo · 09-Ноя-18 10:41 (спустя 1 год 10 месяцев)

[Цитировать] 

Lidia58 писал(а):
72113975100% плагиат фильма за бортом своих мозгов не хватает вот и переделывают иностранные фильмы позор.
да ладно!
[Профиль]  [ЛС] 
 
Ответить
Loading...
Error