Адрес РуТрекера для пользователей РФ - MainTracker.org

Расскажи друзьям:  

Я люблю своего мужа / Серии: 1-4 из 4 (Дмитрий Петрунь) [2016, Комедия, мелодрама, SATRip] + Ukr Subs

Страницы:  1

Ответить
Автор
Сообщение

Dupa29

Стаж: 1 год 9 месяцев

Сообщений: 304

Dupa29 · 31-Дек-16 23:09 (1 год 3 месяца назад, ред. 07-Янв-17 19:18)

Я люблю своего мужа Год выпуска: 2016
Производство: Украина, Star Media по заказу телеканала "Интер"
Жанр: Комедия, мелодрама
Продолжительность: ~ 00:50:00
Субтитры: Украинские, вшитые
Режиссёр: Дмитрий Петрунь
В ролях: Екатерина Климова, Иван Оганесян, Дмитрий Суржиков, Ада Роговцева, Владимир Горянский, Алина Гроссу, Денис Мартынов
Описание: Сергей считает, что за 15 лет брака знает все о своей жене Ольге. Она хорошая хозяйка и мать, но с годами стала скучной, неинтересной, «прочитанной книгой». Сергей регистрируется на сайте знакомств и заводит виртуальный роман с незнакомкой по имени Эмма. Стремительные виртуальные отношения становятся реальными. Женщина умна и очень соблазнительна. Правда прячет лицо и предпочитает встречаться в темноте, но это еще больше распаляет Сергея. В отличие от опостылевшей однообразной Ольги, Эмма — загадочна и притягательна…

| Ссылка на предыдущие и альтернативные раздачи |
Качество: SATRip
Формат: AVI
Видео кодек: XviD
Аудио кодек: AC3
Видео: XviD, 720x400, 25.000 fps, (16:9), ~1500 Kbps, 0.201 bit/pixel
Аудио: AC3, 2 ch, 192 Kbps, CBR

Реклама: Нет
MI
Общее
Общее
Полное имя : D:\Загрузки\Ja.liubliu.svoevo.muza.2016.SATRip\01.Ja.liubliu.svoevo.muza.2016.SATRip..avi
Формат : AVI
Формат/Информация : Audio Video Interleave
Размер файла : 600 Мбайт
Продолжительность : 50 м. 53 с.
Общий поток : 1649 Кбит/сек
Программа кодирования : VirtualDubMod 1.5.10.3 | www.virtualdub-fr.org || (build 2550/release)
Библиотека кодирования : VirtualDubMod build 2550/release
Видео
Идентификатор : 0
Формат : MPEG-4 Visual
Профиль формата : Advanced Simple@L5
Параметр BVOP формата : 1
Параметр QPel формата : Нет
Параметр GMC формата : Без точки перехода
Параметр матрицы формата : Выборочная
Идентификатор кодека : XVID
Идентификатор кодека/Подсказка : XviD
Продолжительность : 50 м. 53 с.
Битрейт : 1448 Кбит/сек
Ширина : 720 пикселей
Высота : 400 пикселей
Соотношение сторон : 16:9
Частота кадров : 25,000 кадров/сек
Цветовое пространство : YUV
Субдискретизация насыщенности : 4:2:0
Битовая глубина : 8 бит
Тип развёртки : Прогрессивная
Метод сжатия : С потерями
Бит/(Пиксели*Кадры) : 0.201
Размер потока : 527 Мбайт (88%)
Библиотека кодирования : XviD 73
Аудио
Идентификатор : 1
Формат : AC-3
Формат/Информация : Audio Coding 3
Расширение режима : CM (complete main)
Параметр Endianness формата : Big
Идентификатор кодека : 2000
Продолжительность : 50 м. 53 с.
Вид битрейта : Постоянный
Битрейт : 192 Кбит/сек
Каналы : 2 канала
Расположение каналов : Front: L R
Частота : 48,0 КГц
Частота кадров : 31,250 кадров/сек (1536 spf)
Битовая глубина : 16 бит
Метод сжатия : С потерями
Размер потока : 69,9 Мбайт (12%)
Выравнивание : Разделение по промежуткам
Продолжительность промежутка : 40 мс. (1,00 видеокадр)
Время предзагрузки промежутка : 500 мс.
Скриншоты
Download
Чтобы скачать .torrent файл необходима регистрация
Сайт не распространяет и не хранит электронные версии произведений, а лишь предоставляет доступ к создаваемому пользователями каталогу ссылок на торрент-файлы, которые содержат только списки хеш-сумм
[Профиль]  [ЛС] 
 

Сударыня

Moderator gray

Стаж: 11 лет

Сообщений: 10882

Сударыня · 01-Янв-17 09:07 (спустя 9 часов)

[Цитировать] 

Dupa29 писал(а):
72141266Субтитры: Нет
Dupa29 писал(а):
72141266Я люблю своего мужа / Серии: 1-4 из 4 (Дмитрий Петрунь) [2016, Комедия, мелодрама, SATRip] + Ukr Subs
Опять меняете оформление? Сама сейчас подправлю.
[Профиль]  [ЛС] 

nechay

Стаж: 9 лет 6 месяцев

Сообщений: 10

nechay · 15-Янв-17 17:58 (спустя 14 дней)

[Цитировать] 

Спасибо огромное за роздачу. не думала, что так оперативно тут появится.
[Профиль]  [ЛС] 

bigita

Стаж: 6 лет 2 месяца

Сообщений: 3


bigita · 30-Апр-17 20:16 (спустя 3 месяца 15 дней)

[Цитировать] 

Очен6ь понравился фильм. Шикарный. Правда конец можно было поинтереснее сделать. Но все равно большое спасибо!
[Профиль]  [ЛС] 

sapphire2H

Стаж: 8 лет 10 месяцев

Сообщений: 110

sapphire2H · 13-Янв-18 16:07 (спустя 8 месяцев)

[Цитировать] 

без укр субтитров нету?
[Профиль]  [ЛС] 
 
Ответить
Loading...
Error