Адрес РуТрекера для пользователей РФ - MainTracker.org

Расскажи друзьям:  

Far East Movement feat. Tiffany (SNSD) & King Chain - Don't Speak [2016, Electropop/Dance/Hip-Hop, HDTV, 1080p]

Страницы:  1

Ответить
Автор
Сообщение

Beta&Ksi

Top Seed 04* 320r

Стаж: 8 лет 1 месяц

Сообщений: 1713

Beta&Ksi · 01-Фев-17 12:40 (1 год 3 месяца назад, ред. 01-Фев-17 12:41)

Far East Movement feat. Tiffany (SNSD) & King Chain - Don't Speak Жанр: Electropop/Dance/Hip-Hop
Продолжительность: 00:04:07
Год выпуска: 2016
Описание: "Don`t Speak" - сингл с альбома FEM "Indentity". Яркий хит для клубов. Изюминкой стало сотрудничество с участницей из группы SNSD ~Girls Generation~ Tiffany (сама девушка американско-корейского происхождения с хорошим английским). Её появление не удивительно, ведь сами артисты проекта Far East Movement имеют корни в Южной Кореи и часто посещают свою Родину.
Доп. информация: Видео от Bugs!
Качество: HDTV
Разрешение видео/развертка: 1080p
Контейнер: MPEG4
Видео кодек: AVC
Аудио кодек: AAC
Видео: 1920 x 1080 (1.778) at 23.976 fps AVC at 17,8 Мбит/сек
Аудио: 2 канала, 48,0 КГц AAC at 317 Кбит/сек
Отчёт MediaInfo / BDInfo
Формат                                   : MPEG-4
Профиль формата : Base Media / Version 2
Идентификатор кодека : mp42 (mp42/mp41)
Размер файла : 535 Мбайт
Продолжительность : 4 м. 7 с.
Режим общего битрейта : Переменный
Общий поток : 18,1 Мбит/сек
©TIM : 00:00:00:00
©TSC : 24000
©TSZ : 1001
Видео
Идентификатор : 1
Формат : AVC
Формат/Информация : Advanced Video Codec
Профиль формата : Main@L4.1
Параметр CABAC формата : Да
Параметр ReFrames формата : 3 кадра
Параметр GOP формата : M=4, N=23
Идентификатор кодека : avc1
Идентификатор кодека/Информация : Advanced Video Coding
Продолжительность : 4 м. 7 с.
Битрейт : 17,8 Мбит/сек
Ширина : 1920 пикселей
Высота : 1080 пикселей
Соотношение сторон : 16:9
Режим частоты кадров : Постоянный
Частота кадров : 23,976 (24000/1001) кадра/сек
Стандарт вещания : NTSC
Цветовое пространство : YUV
Субдискретизация насыщенности : 4:2:0
Битовая глубина : 8 бит
Тип развёртки : Прогрессивная
Бит/(Пиксели*Кадры) : 0.357
Размер потока : 525 Мбайт (98%)
Язык : English
Цветовой диапазон : Limited
Основные цвета : BT.709
Характеристики трансфера : BT.709
Коэффициенты матрицы : BT.709
Аудио
Идентификатор : 2
Формат : AAC
Формат/Информация : Advanced Audio Codec
Профиль формата : LC
Идентификатор кодека : 40
Продолжительность : 4 м. 7 с.
Продолжительность оригинала : 4 м. 7 с.
Вид битрейта : Переменный
Битрейт : 317 Кбит/сек
Максимальный битрейт : 412 Кбит/сек
Каналы : 2 канала
Расположение каналов : Front: L R
Частота : 48,0 КГц
Частота кадров : 46,875 кадров/сек (1024 spf)
Метод сжатия : С потерями
Размер потока : 9,38 Мбайт (2%)
Размер потока оригинала : 9,38 Мбайт (2%)
Язык : English
Скриншоты
Download
Чтобы скачать .torrent файл необходима регистрация
Сайт не распространяет и не хранит электронные версии произведений, а лишь предоставляет доступ к создаваемому пользователями каталогу ссылок на торрент-файлы, которые содержат только списки хеш-сумм
[Профиль]  [ЛС] 
 
 
Ответить
Loading...
Error