Адрес РуТрекера для пользователей РФ - 11.MainTracker.org

Расскажи друзьям:  

Тёща-командир / Серии: 1-4 из 4 (Сергей Мезенцев, Анна Ерофеева) [2016, Мелодрама, HDTVRip]

Страницы:  1

Ответить
Автор
Сообщение

Сибиряк777

Top Seed 05* 640r

Стаж: 10 лет 2 месяца

Сообщений: 3022

Сибиряк777 · 05-Фев-17 19:36 (1 год 10 месяцев назад, ред. 14-Фев-17 19:48)

Тёща-командир

Год выпуска: 2016
Производство: Русское, Abc-Film, Кинокомпания Film Stream
Жанр: Мелодрама
Продолжительность: 00:45:00
Субтитры: нет
Режиссёр: Сергей Мезенцев, Анна Ерофеева
В ролях: Янина Соколовская, Максим Дрозд, Анна Васильева, Юрий Поляк, Виктория Лемзякова, Лиона Филиппова, Михаил Богдасаров, Алина Цибизова, Павел Савинков, Никита Санаев, Алёна Олькина, Анастасия Савицкая, Наталья Тищенко, Елена Ветрова
Описание: Энергичная Катерина Васильевна, по прозвищу Катвас, привыкла всё решать сама - и за себя, и за свою дочь Галю. Но однажды монархия рушится – Галя влюбляется в простого парня и выходит за него замуж.
Молодожены пытаются ужиться в одной квартире с Катериной Васильевной, но семейное гнездо сложно сохранить, когда тёща – командир. Катвас цепляется за любую возможность, чтобы избавиться от чужака…
Доп. информация: Серии слиты, две в одну. 1 файл - 2 серии, 2 файла - 4 серии.
Релиз группа:
Все раздачи сериала / Сэмпл
Качество: HDTVRip
Формат: AVI
Видео кодек: XviD
Аудио кодек: AC3
Видео: 720x400 (16:9), 25.000 fps, XviD build 73, 2 005 Kbps, 0.28 bits/pixel
Аудио: 48 kHz, AC3 Dolby Digital, 2 ch, 192 Kbps
Реклама: Нет
MI
General
Complete name : Downloads\Тёща командир.2016.HDTVRip.Files-x\01.Тёща командир.2016.HDTVRip.Files-x.avi
Format : AVI
Format/Info : Audio Video Interleave
File size : 1.37 GiB
Duration : 1h 28mn
Overall bit rate : 2 206 Kbps
Writing application : VirtualDubMod 1.5.10.3 | www.virtualdub-fr.org || (build 2550/release)
Writing library : VirtualDubMod build 2550/release
Video #0
ID : 0
Format : MPEG-4 Visual
Format profile : Advanced [email protected]
Format settings, BVOP : 1
Format settings, QPel : No
Format settings, GMC : No warppoints
Format settings, Matrix : Custom
Codec ID : XVID
Codec ID/Hint : XviD
Duration : 1h 28mn
Bit rate : 2 005 Kbps
Width : 720 pixels
Height : 400 pixels
Display aspect ratio : 16:9
Frame rate : 25.000 fps
Color space : YUV
Chroma subsampling : 4:2:0
Bit depth : 8 bits
Scan type : Progressive
Compression mode : Lossy
Bits/(Pixel*Frame) : 0.278
Stream size : 1.24 GiB (91%)
Writing library : XviD 73
Audio #1
ID : 1
Format : AC-3
Format/Info : Audio Coding 3
Mode extension : CM (complete main)
Format settings, Endianness : Big
Codec ID : 2000
Duration : 1h 28mn
Bit rate mode : Constant
Bit rate : 192 Kbps
Channel(s) : 2 channels
Channel positions : Front: L R
Sampling rate : 48.0 KHz
Bit depth : 16 bits
Compression mode : Lossy
Stream size : 122 MiB (9%)
Alignment : Split accross interleaves
Interleave, duration : 40 ms (1.00 video frame)
Interleave, preload duration : 500 ms
Скриншоты
Download
Чтобы скачать .torrent файл необходима регистрация
Сайт не распространяет и не хранит электронные версии произведений, а лишь предоставляет доступ к создаваемому пользователями каталогу ссылок на торрент-файлы, которые содержат только списки хеш-сумм
[Профиль]  [ЛС] 
 

vseumerli

Стаж: 9 лет 5 месяцев

Сообщений: 33


vseumerli · 06-Фев-17 21:15 (спустя 1 день 1 час)

[Цитировать] 

Был приятно удивлен фильмом. Скептическое отношение к современному отечественному кино пошатнулось. Спасибо.
[Профиль]  [ЛС] 

kirillkrokodil55

Стаж: 3 года 7 месяцев

Сообщений: 9

kirillkrokodil55 · 14-Фев-17 19:03 (спустя 7 дней)

[Цитировать] 

при создании двд диска звука нет
[Профиль]  [ЛС] 

VladRost

Стаж: 8 лет 9 месяцев

Сообщений: 257


VladRost · 24-Фев-17 12:11 (спустя 9 дней)

[Цитировать] 

первая серия - полет нормальный.
Можно смотреть, приятная мелодрама.
[Профиль]  [ЛС] 

Metandrostenolon

Стаж: 10 лет

Сообщений: 102


Metandrostenolon · 01-Мар-17 12:11 (спустя 4 дня)

[Цитировать] 

Удачный фильм, и по смыслу, и по исполнению, и по подбору актеров. Редкость для нашего кинематографа.
[Профиль]  [ЛС] 

ScepticForever

Стаж: 5 лет 10 месяцев

Сообщений: 331

ScepticForever · 01-Мар-17 14:32 (спустя 2 часа 21 мин.)

[Цитировать] 

Metandrostenolon писал(а):
72591419Удачный фильм, и по смыслу, и по исполнению, и по подбору актеров. Редкость для нашего кинематографа.
Может быть, может быть... Но название сериала убивает желание взглянуть на него напрочь.
[Профиль]  [ЛС] 

Rising-76

Стаж: 8 лет 8 месяцев

Сообщений: 122

Rising-76 · 06-Мар-18 21:47 (спустя 1 год)

[Цитировать] 

Сюжет банален и понятен с первых минут. Игра актёров ужасна
[Профиль]  [ЛС] 

1surinam

Стаж: 6 лет 8 месяцев

Сообщений: 145


1surinam · 07-Дек-18 01:38 (спустя 9 месяцев)

[Цитировать] 

Я пока не смотрел,но мне кажется фильм просто удачный какой-то...
[Профиль]  [ЛС] 
 
Ответить
Loading...
Error