Мастер и Маргарита / Серии: 1-12 из 12 (Владимир Бортко) [2005, Драма, триллер, экранизация, HDTV 1080i]

Страницы :  1, 2  След.

Ответить
Автор
Сообщение

ylnian

Стаж: 8 лет 2 месяца

Сообщений: 1255

ylnian · 28-Фев-17 17:59 (1 год 8 месяцев назад, ред. 22-Мар-17 13:25)

Мастер и Маргарита
Производство: ВГТРК, Ленфильм, Централ Партнершип
Жанр: Драма, триллер, экранизация
Год выпуска: 2005
Продолжительность: ~ 42 мин
Субтитры: Отсутствуют
Режиссёр: Владимир Бортко
В ролях: Александр Галибин, Анна Ковальчук, Олег Басилашвили, Александр Абдулов, Александр Баширов, Александр Филиппенко, Сергей Безруков, Кирилл Лавров, Валентин Гафт, Владислав Галкин, Александр Адабашьян, Александр Панкратов-Черный, Валерий Золотухин, Роман Карцев, Илья Олейников, Нина Усатова, Дмитрий Нагиев, Лев Борисов, Вадим Лобанов, Василий Ливанов, Ксения Назарова, Ирина Ракшина, Семен Фурман, Татьяна Ткач, Лев Дуров, Галина Бокашевская, Юлия Ауг
Описание: Экранизация культового романа Михаила Булгакова. Однажды весною, в час небывало жаркого заката, в Москве, на Патриарших прудах, появились два гражданина. Первый из них, одетый в летнюю серенькую пару, был маленького роста, упитан, лыс, свою приличную шляпу пирожком нес в руке, а на хорошо выбритом лице его помещались сверхъестественных размеров очки в черной роговой оправе. Второй — плечистый, рыжеватый, вихрастый молодой человек в заломленной на затылок клетчатой кепке — был в ковбойке, жеваных белых брюках и в черных тапочках.
Доп. информация:
Автор релиза -
Источник - HDTV 1080i TS - моя запись с канала Россия-1 HD
Значительное улучшение качества видео в сравнении с DVD9 - http://screenshotcomparison.com/comparison/202097
Т/к Россия-1 HD при показе данного фильма в феврале-марте 2017 года изменил разбивку серий: теперь их стало 12, а не 10, как было на DVD. Этим обусловлен и меньший хронометраж серий в моей раздаче - 42 минуты против 51 минуты.
Рекламы нет!
Все раздачи сериала



Сэмпл: https://yadi.sk/i/huWi7L7d3Eo6bd
Качество видео: HDTV 1080i
Формат видео: MKV
Видео кодек: MPEG-2
Аудио кодек: МР2
Видео: 1920x1080 (16:9), 25.000 fps, ~ 10200 kbps, ~ 0.19 bit/pixel
Аудио: 48000 Гц, 2 ch, 192 kbps
MediaInfo
Общее
Уникальный идентификатор : 183127802471831426585986790016113811115 (0x89C521C0770B6000A001D1C78B219EAB)
Полное имя : E:\Мастер.и.Маргарита.2005.HDTV.1080i-ylnian\01 серия.mkv
Формат : Matroska
Версия формата : Version 4 / Version 2
Размер файла : 3,34 Гбайт
Продолжительность : 41 м.
Режим общего битрейта : Переменный
Общий поток : 11,6 Мбит/сек
Дата кодирования : UTC 2017-03-01 06:27:05
Программа кодирования : mkvmerge v9.9.0 ('Pick Up') 64bit
Библиотека кодирования : libebml v1.3.4 + libmatroska v1.4.5
Видео
Идентификатор : 1
Формат : MPEG Video
Версия формата : Version 2
Профиль формата : [email protected]
Параметр BVOP формата : Да
Параметр матрицы формата : Выборочная
Параметр GOP формата : M=3, N=15
Структура изображения : Frame
Идентификатор кодека : V_MPEG2
Идентификатор кодека/Информация : MPEG 1 or 2 Video
Продолжительность : 41 м.
Вид битрейта : Переменный
Битрейт : 11,4 Мбит/сек
Максимальный битрейт : 19,2 Мбит/сек
Ширина : 1920 пикселей
Высота : 1080 пикселей
Соотношение сторон : 16:9
Режим частоты кадров : Постоянный
Частота кадров : 25,000 кадров/сек
Цветовое пространство : YUV
Субдискретизация насыщенности : 4:2:0
Битовая глубина : 8 бит
Тип развёртки : Чересстрочная
Порядок развёртки : Верхнее поле первое
Метод сжатия : С потерями
Бит/(Пиксели*Кадры) : 0.220
Размер потока : 3,29 Гбайт (98%)
Язык : Russian
Default : Да
Forced : Да
Аудио
Идентификатор : 2
Формат : MPEG Audio
Версия формата : Version 1
Профиль формата : Layer 2
Идентификатор кодека : A_MPEG/L2
Идентификатор кодека/Подсказка : MP2
Продолжительность : 41 м.
Вид битрейта : Постоянный
Битрейт : 192 Кбит/сек
Каналы : 2 канала
Частота : 48,0 КГц
Частота кадров : 41,667 кадра/сек (1152 spf)
Метод сжатия : С потерями
Размер потока : 56,7 Мбайт (2%)
Язык : Russian
Default : Да
Forced : Да
Общее
Уникальный идентификатор : 248164937021164807908094308566362882313 (0xBAB2D40DCD56A40FA4CAE2A122660109)
Полное имя : E:\Мастер.и.Маргарита.2005.HDTV.1080i-ylnian\02 серия.mkv
Формат : Matroska
Версия формата : Version 4 / Version 2
Размер файла : 3,39 Гбайт
Продолжительность : 44 м.
Режим общего битрейта : Переменный
Общий поток : 11,0 Мбит/сек
Дата кодирования : UTC 2017-02-28 14:13:37
Программа кодирования : mkvmerge v9.9.0 ('Pick Up') 64bit
Библиотека кодирования : libebml v1.3.4 + libmatroska v1.4.5
Видео
Идентификатор : 1
Формат : MPEG Video
Версия формата : Version 2
Профиль формата : [email protected]
Параметр BVOP формата : Да
Параметр матрицы формата : Выборочная
Параметр GOP формата : M=3, N=15
Структура изображения : Frame
Идентификатор кодека : V_MPEG2
Идентификатор кодека/Информация : MPEG 1 or 2 Video
Продолжительность : 44 м.
Вид битрейта : Переменный
Битрейт : 10,8 Мбит/сек
Максимальный битрейт : 19,2 Мбит/сек
Ширина : 1920 пикселей
Высота : 1080 пикселей
Соотношение сторон : 16:9
Режим частоты кадров : Постоянный
Частота кадров : 25,000 кадров/сек
Цветовое пространство : YUV
Субдискретизация насыщенности : 4:2:0
Битовая глубина : 8 бит
Тип развёртки : Чересстрочная
Порядок развёртки : Верхнее поле первое
Метод сжатия : С потерями
Бит/(Пиксели*Кадры) : 0.208
Размер потока : 3,33 Гбайт (98%)
Язык : Russian
Default : Да
Forced : Да
Аудио
Идентификатор : 2
Формат : MPEG Audio
Версия формата : Version 1
Профиль формата : Layer 2
Идентификатор кодека : A_MPEG/L2
Идентификатор кодека/Подсказка : MP2
Продолжительность : 44 м.
Вид битрейта : Постоянный
Битрейт : 192 Кбит/сек
Каналы : 2 канала
Частота : 48,0 КГц
Частота кадров : 41,667 кадра/сек (1152 spf)
Метод сжатия : С потерями
Размер потока : 60,7 Мбайт (2%)
Язык : Russian
Default : Да
Forced : Да
Общее
Уникальный идентификатор : 231240804363404640026075109097561016316 (0xADF75BE410FFE289A6CE261F23AE47FC)
Полное имя : E:\Мастер.и.Маргарита.2005.HDTV.1080i-ylnian\03 серия.mkv
Формат : Matroska
Версия формата : Version 4 / Version 2
Размер файла : 3,03 Гбайт
Продолжительность : 41 м.
Режим общего битрейта : Переменный
Общий поток : 10,5 Мбит/сек
Дата кодирования : UTC 2017-03-01 07:37:30
Программа кодирования : mkvmerge v9.9.0 ('Pick Up') 64bit
Библиотека кодирования : libebml v1.3.4 + libmatroska v1.4.5
Видео
Идентификатор : 1
Формат : MPEG Video
Версия формата : Version 2
Профиль формата : [email protected]
Параметр BVOP формата : Да
Параметр матрицы формата : Выборочная
Параметр GOP формата : M=3, N=15
Структура изображения : Frame
Идентификатор кодека : V_MPEG2
Идентификатор кодека/Информация : MPEG 1 or 2 Video
Продолжительность : 41 м.
Вид битрейта : Переменный
Битрейт : 10,3 Мбит/сек
Максимальный битрейт : 19,2 Мбит/сек
Ширина : 1920 пикселей
Высота : 1080 пикселей
Соотношение сторон : 16:9
Режим частоты кадров : Постоянный
Частота кадров : 25,000 кадров/сек
Цветовое пространство : YUV
Субдискретизация насыщенности : 4:2:0
Битовая глубина : 8 бит
Тип развёртки : Чересстрочная
Порядок развёртки : Верхнее поле первое
Метод сжатия : С потерями
Бит/(Пиксели*Кадры) : 0.198
Размер потока : 2,98 Гбайт (98%)
Язык : Russian
Default : Да
Forced : Да
Аудио
Идентификатор : 2
Формат : MPEG Audio
Версия формата : Version 1
Профиль формата : Layer 2
Идентификатор кодека : A_MPEG/L2
Идентификатор кодека/Подсказка : MP2
Продолжительность : 41 м.
Вид битрейта : Постоянный
Битрейт : 192 Кбит/сек
Каналы : 2 канала
Частота : 48,0 КГц
Частота кадров : 41,667 кадра/сек (1152 spf)
Метод сжатия : С потерями
Размер потока : 56,9 Мбайт (2%)
Язык : Russian
Default : Да
Forced : Да
Общее
Уникальный идентификатор : 189983482517987996817535810801860369142 (0x8EED7CDFF05ABC5E8212C6B3FF585AF6)
Полное имя : E:\Мастер.и.Маргарита.2005.HDTV.1080i-ylnian\04 серия.mkv
Формат : Matroska
Версия формата : Version 4 / Version 2
Размер файла : 3,08 Гбайт
Продолжительность : 42 м.
Режим общего битрейта : Переменный
Общий поток : 10,5 Мбит/сек
Дата кодирования : UTC 2017-03-01 08:40:47
Программа кодирования : mkvmerge v9.9.0 ('Pick Up') 64bit
Библиотека кодирования : libebml v1.3.4 + libmatroska v1.4.5
Видео
Идентификатор : 1
Формат : MPEG Video
Версия формата : Version 2
Профиль формата : [email protected]
Параметр BVOP формата : Да
Параметр матрицы формата : Выборочная
Параметр GOP формата : M=3, N=15
Структура изображения : Frame
Идентификатор кодека : V_MPEG2
Идентификатор кодека/Информация : MPEG 1 or 2 Video
Продолжительность : 42 м.
Вид битрейта : Переменный
Битрейт : 10,3 Мбит/сек
Максимальный битрейт : 19,2 Мбит/сек
Ширина : 1920 пикселей
Высота : 1080 пикселей
Соотношение сторон : 16:9
Режим частоты кадров : Постоянный
Частота кадров : 25,000 кадров/сек
Цветовое пространство : YUV
Субдискретизация насыщенности : 4:2:0
Битовая глубина : 8 бит
Тип развёртки : Чересстрочная
Порядок развёртки : Верхнее поле первое
Метод сжатия : С потерями
Бит/(Пиксели*Кадры) : 0.198
Размер потока : 3,02 Гбайт (98%)
Язык : Russian
Default : Да
Forced : Да
Аудио
Идентификатор : 2
Формат : MPEG Audio
Версия формата : Version 1
Профиль формата : Layer 2
Идентификатор кодека : A_MPEG/L2
Идентификатор кодека/Подсказка : MP2
Продолжительность : 42 м.
Вид битрейта : Постоянный
Битрейт : 192 Кбит/сек
Каналы : 2 канала
Частота : 48,0 КГц
Частота кадров : 41,667 кадра/сек (1152 spf)
Метод сжатия : С потерями
Размер потока : 57,8 Мбайт (2%)
Язык : Russian
Default : Да
Forced : Да
Общее
Уникальный идентификатор : 189369409829665341084786636518480752141 (0x8E7738C0F34BEAC0BF057B4024552E0D)
Полное имя : E:\Мастер.и.Маргарита.2005.HDTV.1080i-ylnian\05 серия.mkv
Формат : Matroska
Версия формата : Version 4 / Version 2
Размер файла : 2,99 Гбайт
Продолжительность : 43 м.
Режим общего битрейта : Переменный
Общий поток : 9930 Кбит/сек
Дата кодирования : UTC 2017-03-02 09:38:43
Программа кодирования : mkvmerge v9.9.0 ('Pick Up') 64bit
Библиотека кодирования : libebml v1.3.4 + libmatroska v1.4.5
Видео
Идентификатор : 1
Формат : MPEG Video
Версия формата : Version 2
Профиль формата : [email protected]
Параметр BVOP формата : Да
Параметр матрицы формата : Выборочная
Параметр GOP формата : M=3, N=15
Структура изображения : Frame
Идентификатор кодека : V_MPEG2
Идентификатор кодека/Информация : MPEG 1 or 2 Video
Продолжительность : 43 м.
Вид битрейта : Переменный
Битрейт : 9736 Кбит/сек
Максимальный битрейт : 19,2 Мбит/сек
Ширина : 1920 пикселей
Высота : 1080 пикселей
Соотношение сторон : 16:9
Режим частоты кадров : Постоянный
Частота кадров : 25,000 кадров/сек
Цветовое пространство : YUV
Субдискретизация насыщенности : 4:2:0
Битовая глубина : 8 бит
Тип развёртки : Чересстрочная
Порядок развёртки : Верхнее поле первое
Метод сжатия : С потерями
Бит/(Пиксели*Кадры) : 0.188
Размер потока : 2,93 Гбайт (98%)
Язык : Russian
Default : Да
Forced : Да
Аудио
Идентификатор : 2
Формат : MPEG Audio
Версия формата : Version 1
Профиль формата : Layer 2
Идентификатор кодека : A_MPEG/L2
Идентификатор кодека/Подсказка : MP2
Продолжительность : 43 м.
Вид битрейта : Постоянный
Битрейт : 192 Кбит/сек
Каналы : 2 канала
Частота : 48,0 КГц
Частота кадров : 41,667 кадра/сек (1152 spf)
Метод сжатия : С потерями
Размер потока : 59,3 Мбайт (2%)
Язык : Russian
Default : Да
Forced : Да
Общее
Уникальный идентификатор : 225302399810967715873010332938965585056 (0xA97FA9F103776BFD9B68F152686B8CA0)
Полное имя : E:\Мастер.и.Маргарита.2005.HDTV.1080i-ylnian\06 серия.mkv
Формат : Matroska
Версия формата : Version 4 / Version 2
Размер файла : 3,13 Гбайт
Продолжительность : 41 м.
Режим общего битрейта : Переменный
Общий поток : 10,7 Мбит/сек
Дата кодирования : UTC 2017-03-02 16:39:02
Программа кодирования : mkvmerge v9.9.0 ('Pick Up') 64bit
Библиотека кодирования : libebml v1.3.4 + libmatroska v1.4.5
Видео
Идентификатор : 1
Формат : MPEG Video
Версия формата : Version 2
Профиль формата : [email protected]
Параметр BVOP формата : Да
Параметр матрицы формата : Выборочная
Параметр GOP формата : M=3, N=15
Структура изображения : Frame
Идентификатор кодека : V_MPEG2
Идентификатор кодека/Информация : MPEG 1 or 2 Video
Продолжительность : 41 м.
Вид битрейта : Переменный
Битрейт : 10,5 Мбит/сек
Максимальный битрейт : 19,2 Мбит/сек
Ширина : 1920 пикселей
Высота : 1080 пикселей
Соотношение сторон : 16:9
Режим частоты кадров : Постоянный
Частота кадров : 25,000 кадров/сек
Цветовое пространство : YUV
Субдискретизация насыщенности : 4:2:0
Битовая глубина : 8 бит
Тип развёртки : Чересстрочная
Метод сжатия : С потерями
Бит/(Пиксели*Кадры) : 0.203
Размер потока : 3,08 Гбайт (98%)
Язык : Russian
Default : Да
Forced : Да
Аудио
Идентификатор : 2
Формат : MPEG Audio
Версия формата : Version 1
Профиль формата : Layer 2
Идентификатор кодека : A_MPEG/L2
Идентификатор кодека/Подсказка : MP2
Продолжительность : 41 м.
Вид битрейта : Постоянный
Битрейт : 192 Кбит/сек
Каналы : 2 канала
Частота : 48,0 КГц
Частота кадров : 41,667 кадра/сек (1152 spf)
Метод сжатия : С потерями
Размер потока : 57,5 Мбайт (2%)
Язык : Russian
Default : Да
Forced : Да
Общее
Уникальный идентификатор : 180864839159360980312184802993176642241 (0x88114D0BDED90AEDB8C3197A581902C1)
Полное имя : E:\Мастер.и.Маргарита.2005.HDTV.1080i-ylnian\07 серия.mkv
Формат : Matroska
Версия формата : Version 4 / Version 2
Размер файла : 3,11 Гбайт
Продолжительность : 43 м.
Режим общего битрейта : Переменный
Общий поток : 10,3 Мбит/сек
Дата кодирования : UTC 2017-03-03 08:18:22
Программа кодирования : mkvmerge v9.9.0 ('Pick Up') 64bit
Библиотека кодирования : libebml v1.3.4 + libmatroska v1.4.5
Видео
Идентификатор : 1
Формат : MPEG Video
Версия формата : Version 2
Профиль формата : [email protected]
Параметр BVOP формата : Да
Параметр матрицы формата : Выборочная
Параметр GOP формата : M=3, N=15
Структура изображения : Frame
Идентификатор кодека : V_MPEG2
Идентификатор кодека/Информация : MPEG 1 or 2 Video
Продолжительность : 43 м.
Вид битрейта : Переменный
Битрейт : 10,1 Мбит/сек
Максимальный битрейт : 19,2 Мбит/сек
Ширина : 1920 пикселей
Высота : 1080 пикселей
Соотношение сторон : 16:9
Режим частоты кадров : Постоянный
Частота кадров : 25,000 кадров/сек
Цветовое пространство : YUV
Субдискретизация насыщенности : 4:2:0
Битовая глубина : 8 бит
Тип развёртки : Чересстрочная
Порядок развёртки : Верхнее поле первое
Метод сжатия : С потерями
Бит/(Пиксели*Кадры) : 0.196
Размер потока : 3,05 Гбайт (98%)
Язык : Russian
Default : Да
Forced : Да
Аудио
Идентификатор : 2
Формат : MPEG Audio
Версия формата : Version 1
Профиль формата : Layer 2
Идентификатор кодека : A_MPEG/L2
Идентификатор кодека/Подсказка : MP2
Продолжительность : 43 м.
Вид битрейта : Постоянный
Битрейт : 192 Кбит/сек
Каналы : 2 канала
Частота : 48,0 КГц
Частота кадров : 41,667 кадра/сек (1152 spf)
Метод сжатия : С потерями
Размер потока : 59,1 Мбайт (2%)
Язык : Russian
Default : Да
Forced : Да
Общее
Уникальный идентификатор : 191079107495580039324369337843179550968 (0x8FC07F5B5317B80087E75168A1C378F8)
Полное имя : E:\Мастер.и.Маргарита.2005.HDTV.1080i-ylnian\08 серия.mkv
Формат : Matroska
Версия формата : Version 4 / Version 2
Размер файла : 3,17 Гбайт
Продолжительность : 43 м.
Режим общего битрейта : Переменный
Общий поток : 10,3 Мбит/сек
Дата кодирования : UTC 2017-03-03 09:07:17
Программа кодирования : mkvmerge v9.9.0 ('Pick Up') 64bit
Библиотека кодирования : libebml v1.3.4 + libmatroska v1.4.5
Видео
Идентификатор : 1
Формат : MPEG Video
Версия формата : Version 2
Профиль формата : [email protected]
Параметр BVOP формата : Да
Параметр матрицы формата : Выборочная
Параметр GOP формата : M=3, N=15
Структура изображения : Frame
Идентификатор кодека : V_MPEG2
Идентификатор кодека/Информация : MPEG 1 or 2 Video
Продолжительность : 43 м.
Вид битрейта : Переменный
Битрейт : 10,1 Мбит/сек
Максимальный битрейт : 19,2 Мбит/сек
Ширина : 1920 пикселей
Высота : 1080 пикселей
Соотношение сторон : 16:9
Режим частоты кадров : Постоянный
Частота кадров : 25,000 кадров/сек
Цветовое пространство : YUV
Субдискретизация насыщенности : 4:2:0
Битовая глубина : 8 бит
Тип развёртки : Чересстрочная
Порядок развёртки : Верхнее поле первое
Метод сжатия : С потерями
Бит/(Пиксели*Кадры) : 0.196
Размер потока : 3,11 Гбайт (98%)
Язык : Russian
Default : Да
Forced : Да
Аудио
Идентификатор : 2
Формат : MPEG Audio
Версия формата : Version 1
Профиль формата : Layer 2
Идентификатор кодека : A_MPEG/L2
Идентификатор кодека/Подсказка : MP2
Продолжительность : 43 м.
Вид битрейта : Постоянный
Битрейт : 192 Кбит/сек
Каналы : 2 канала
Частота : 48,0 КГц
Частота кадров : 41,667 кадра/сек (1152 spf)
Метод сжатия : С потерями
Размер потока : 60,4 Мбайт (2%)
Язык : Russian
Default : Да
Forced : Да
Общее
Уникальный идентификатор : 224856634720610169061767241737625883264 (0xA929D0069206B5E5BECAD1D3187F5280)
Полное имя : E:\Мастер.и.Маргарита.2005.HDTV.1080i-ylnian\09 серия.mkv
Формат : Matroska
Версия формата : Version 4 / Version 2
Размер файла : 2,83 Гбайт
Продолжительность : 44 м.
Режим общего битрейта : Переменный
Общий поток : 9158 Кбит/сек
Дата кодирования : UTC 2017-03-07 07:03:21
Программа кодирования : mkvmerge v9.9.0 ('Pick Up') 64bit
Библиотека кодирования : libebml v1.3.4 + libmatroska v1.4.5
Видео
Идентификатор : 1
Формат : MPEG Video
Версия формата : Version 2
Профиль формата : [email protected]
Параметр BVOP формата : Да
Параметр матрицы формата : Выборочная
Параметр GOP формата : M=3, N=15
Структура изображения : Frame
Идентификатор кодека : V_MPEG2
Идентификатор кодека/Информация : MPEG 1 or 2 Video
Продолжительность : 44 м.
Вид битрейта : Переменный
Битрейт : 8963 Кбит/сек
Максимальный битрейт : 19,2 Мбит/сек
Ширина : 1920 пикселей
Высота : 1080 пикселей
Соотношение сторон : 16:9
Режим частоты кадров : Постоянный
Частота кадров : 25,000 кадров/сек
Цветовое пространство : YUV
Субдискретизация насыщенности : 4:2:0
Битовая глубина : 8 бит
Тип развёртки : Чересстрочная
Порядок развёртки : Верхнее поле первое
Метод сжатия : С потерями
Бит/(Пиксели*Кадры) : 0.173
Размер потока : 2,77 Гбайт (98%)
Язык : Russian
Default : Да
Forced : Да
Аудио
Идентификатор : 2
Формат : MPEG Audio
Версия формата : Version 1
Профиль формата : Layer 2
Идентификатор кодека : A_MPEG/L2
Идентификатор кодека/Подсказка : MP2
Продолжительность : 44 м.
Вид битрейта : Постоянный
Битрейт : 192 Кбит/сек
Каналы : 2 канала
Частота : 48,0 КГц
Частота кадров : 41,667 кадра/сек (1152 spf)
Метод сжатия : С потерями
Задержка видео : 8 мс.
Размер потока : 60,8 Мбайт (2%)
Язык : Russian
Default : Да
Forced : Да
Общее
Уникальный идентификатор : 230638039810139637991066887321421028034 (0xAD83454DCEF4E3719747583244831AC2)
Полное имя : E:\Мастер.и.Маргарита.2005.HDTV.1080i-ylnian\10 серия.mkv
Формат : Matroska
Версия формата : Version 4 / Version 2
Размер файла : 2,82 Гбайт
Продолжительность : 44 м.
Режим общего битрейта : Переменный
Общий поток : 9174 Кбит/сек
Дата кодирования : UTC 2017-03-07 07:18:50
Программа кодирования : mkvmerge v9.9.0 ('Pick Up') 64bit
Библиотека кодирования : libebml v1.3.4 + libmatroska v1.4.5
Видео
Идентификатор : 1
Формат : MPEG Video
Версия формата : Version 2
Профиль формата : [email protected]
Параметр BVOP формата : Да
Параметр матрицы формата : Выборочная
Параметр GOP формата : M=3, N=15
Структура изображения : Frame
Идентификатор кодека : V_MPEG2
Идентификатор кодека/Информация : MPEG 1 or 2 Video
Продолжительность : 44 м.
Вид битрейта : Переменный
Битрейт : 8980 Кбит/сек
Максимальный битрейт : 19,2 Мбит/сек
Ширина : 1920 пикселей
Высота : 1080 пикселей
Соотношение сторон : 16:9
Режим частоты кадров : Постоянный
Частота кадров : 25,000 кадров/сек
Цветовое пространство : YUV
Субдискретизация насыщенности : 4:2:0
Битовая глубина : 8 бит
Тип развёртки : Чересстрочная
Порядок развёртки : Верхнее поле первое
Метод сжатия : С потерями
Бит/(Пиксели*Кадры) : 0.173
Размер потока : 2,76 Гбайт (98%)
Язык : Russian
Default : Да
Forced : Да
Аудио
Идентификатор : 2
Формат : MPEG Audio
Версия формата : Version 1
Профиль формата : Layer 2
Идентификатор кодека : A_MPEG/L2
Идентификатор кодека/Подсказка : MP2
Продолжительность : 44 м.
Вид битрейта : Постоянный
Битрейт : 192 Кбит/сек
Каналы : 2 канала
Частота : 48,0 КГц
Частота кадров : 41,667 кадра/сек (1152 spf)
Метод сжатия : С потерями
Задержка видео : 8 мс.
Размер потока : 60,5 Мбайт (2%)
Язык : Russian
Default : Да
Forced : Да
Общее
Уникальный идентификатор : 243255413789092485440701906509190150574 (0xB70149DEBEC5BCA6BB004812EED039AE)
Полное имя : E:\Мастер.и.Маргарита.2005.HDTV.1080i-ylnian\11 серия.mkv
Формат : Matroska
Версия формата : Version 4 / Version 2
Размер файла : 3,44 Гбайт
Продолжительность : 44 м.
Режим общего битрейта : Переменный
Общий поток : 11,1 Мбит/сек
Дата кодирования : UTC 2017-03-09 08:49:35
Программа кодирования : mkvmerge v9.9.0 ('Pick Up') 64bit
Библиотека кодирования : libebml v1.3.4 + libmatroska v1.4.5
Видео
Идентификатор : 1
Формат : MPEG Video
Версия формата : Version 2
Профиль формата : [email protected]
Параметр BVOP формата : Да
Параметр матрицы формата : Выборочная
Параметр GOP формата : M=3, N=15
Структура изображения : Frame
Идентификатор кодека : V_MPEG2
Идентификатор кодека/Информация : MPEG 1 or 2 Video
Продолжительность : 44 м.
Вид битрейта : Переменный
Битрейт : 10,9 Мбит/сек
Максимальный битрейт : 19,2 Мбит/сек
Ширина : 1920 пикселей
Высота : 1080 пикселей
Соотношение сторон : 16:9
Режим частоты кадров : Постоянный
Частота кадров : 25,000 кадров/сек
Цветовое пространство : YUV
Субдискретизация насыщенности : 4:2:0
Битовая глубина : 8 бит
Тип развёртки : Чересстрочная
Порядок развёртки : Верхнее поле первое
Метод сжатия : С потерями
Бит/(Пиксели*Кадры) : 0.210
Размер потока : 3,38 Гбайт (98%)
Язык : Russian
Default : Да
Forced : Да
Аудио
Идентификатор : 2
Формат : MPEG Audio
Версия формата : Version 1
Профиль формата : Layer 2
Идентификатор кодека : A_MPEG/L2
Идентификатор кодека/Подсказка : MP2
Продолжительность : 44 м.
Вид битрейта : Постоянный
Битрейт : 192 Кбит/сек
Каналы : 2 канала
Частота : 48,0 КГц
Частота кадров : 41,667 кадра/сек (1152 spf)
Метод сжатия : С потерями
Размер потока : 61,0 Мбайт (2%)
Язык : Russian
Default : Да
Forced : Да
Общее
Уникальный идентификатор : 243758344173837698499485230983013044952 (0xB7622640A472CFE89119BD5C8DAD92D8)
Полное имя : E:\Мастер.и.Маргарита.2005.HDTV.1080i-ylnian\12 серия.mkv
Формат : Matroska
Версия формата : Version 4 / Version 2
Размер файла : 3,04 Гбайт
Продолжительность : 39 м.
Режим общего битрейта : Переменный
Общий поток : 11,1 Мбит/сек
Дата кодирования : UTC 2017-03-09 08:51:46
Программа кодирования : mkvmerge v9.9.0 ('Pick Up') 64bit
Библиотека кодирования : libebml v1.3.4 + libmatroska v1.4.5
Видео
Идентификатор : 1
Формат : MPEG Video
Версия формата : Version 2
Профиль формата : [email protected]
Параметр BVOP формата : Да
Параметр матрицы формата : Выборочная
Параметр GOP формата : M=3, N=15
Структура изображения : Frame
Идентификатор кодека : V_MPEG2
Идентификатор кодека/Информация : MPEG 1 or 2 Video
Продолжительность : 39 м.
Вид битрейта : Переменный
Битрейт : 10,9 Мбит/сек
Максимальный битрейт : 19,2 Мбит/сек
Ширина : 1920 пикселей
Высота : 1080 пикселей
Соотношение сторон : 16:9
Режим частоты кадров : Постоянный
Частота кадров : 25,000 кадров/сек
Цветовое пространство : YUV
Субдискретизация насыщенности : 4:2:0
Битовая глубина : 8 бит
Тип развёртки : Чересстрочная
Порядок развёртки : Верхнее поле первое
Метод сжатия : С потерями
Бит/(Пиксели*Кадры) : 0.210
Размер потока : 2,98 Гбайт (98%)
Язык : Russian
Default : Да
Forced : Да
Аудио
Идентификатор : 2
Формат : MPEG Audio
Версия формата : Version 1
Профиль формата : Layer 2
Идентификатор кодека : A_MPEG/L2
Идентификатор кодека/Подсказка : MP2
Продолжительность : 39 м.
Вид битрейта : Постоянный
Битрейт : 192 Кбит/сек
Каналы : 2 канала
Частота : 48,0 КГц
Частота кадров : 41,667 кадра/сек (1152 spf)
Метод сжатия : С потерями
Размер потока : 53,8 Мбайт (2%)
Язык : Russian
Default : Да
Forced : Да
Сравнение с DVD
Интересно
Валентин Гафт, исполнивший в телесериале роли Человека во френче и первосвященника Каифы, в фильме Кары сыграл самого Воланда. В свою очередь, исполнивший роль Азазелло Александр Филиппенко в том фильме сыграл другого представителя тёмных сил — Коровьева.
Первоначально на роль Воланда планировался Олег Янковский, на роль Мастера — Олег Меньшиков; музыку должен был написать Андрей Петров[4].
Человек во френче носит знаки различия майора госбезопасности (звание соответствовало званию комбрига РККА) во время основного действия фильма и знаки различия старшего майора госбезопасности (соответствует комдиву РККА) в финале. Эти знаки различия носили сотрудники ГУГБ НКВД в 1937—1943 годах.
В съёмках фильма (в первых двух сериях) был задействован один и тот же трамвай № 2424 (все три раза: в самом начале, при несчастном случае с Берлиозом и когда кот Бегемот садился в трамвай), который сейчас курсирует по улицам Санкт-Петербурга (см. фото этого трамвая)
У Пилата на груди висит изображение Медузы Горгоны.
Несмотря на достаточно большую продолжительность, в фильме опущены некоторые эпизоды романа Булгакова, например, оглашение Понтием Пилатом смертного приговора перед толпой народа, сон Никанора Ивановича, консультация буфетчика с врачом после посещения «нехорошей квартиры», эпизод с Маргаритой в троллейбусе по дороге в Александровский сад, столкновение Маргариты с освещённым диском во время полёта, разговор Маргариты с мальчиком после разгрома квартиры Латунского (также было опущено большинство деталей полёта Маргариты из квартиры Латунского на озеро, кроме встречи с Наташей на борове), разговор с Козлоногим за бокалом шампанского (скромно были представлены детали сцены шабаша, так, например, не было толстомордых лягушек, светящихся гнилушек, перелёта Маргариты на другой берег. Эпизода посвящения Маргариты в ведьмы в романе нет, это находка авторов фильма), игра Воланда и Кота Бегемота в шахматы (фигуры шахмат, согласно роману Булгакова, живые), эпизод наблюдения Воландом и Маргаритой за происходящим в глобусе, лес с попугаями и полёт Маргариты на Балу сатаны, эпизоды с Абадонной, увлечённый разговор Бегемота, Геллы и Воланда после бала, случай с кражей золотой подковы Аннушкой, встреча Афрания с Низой, разговор Воланда, Коровьева и Бегемота после пожара в «Грибоедове».
«Человек во френче» в романе не упоминается, все эпизоды с его участием — находка авторов фильма.
Часть повествования, описаний и прочей важной информации, выраженной в книге авторскими словами, произносится героями сериала. Например, Лиходеев сам рассказывает об истории «нехорошей квартиры» и пропаже собственной жены с женой Берлиоза, а речь о «шайке гипнотизёров» была произнесена человеком во френче.
В сериале есть несоответствия внешности и возраста. О Воланде в романе говорится как о человеке неопределенно-средних лет, а Олегу Басилашвили в 2005 году был 71 год. Кириллу Лаврову на момент съемок шёл 80-й год, хотя Пилат должен быть моложе (глубокому старику неуместна боязнь «погубить карьеру»). У Азазелло цвет волос — рыжий, а у Александра Филиппенко в этой роли — тёмный и только на груди заметны торчащие из-под майки рыжие волосы. В романе Воланд — брюнет. Александру Галибину во время съёмок было 50 лет, в то время как его персонажу — 38. Александру Адабашьяну — 60, Берлиозу — 40, и к тому же Берлиоз был лысым. Понырев (Бездомный) — в романе человек лет двадцати трёх, Галкин на момент съемок на 10 лет старше.
Эпизод, когда Афраний выбрасывает полученный в награду от Понтия Пилата перстень, отсутствует у Булгакова. Владимиру Бортко очень понравилась эта сцена у Анджея Вайды в фильме «Пилат и другие», и он позаимствовал её для своей картины[4].
Когда Кот-Бегемот спрыгивает с вернувшейся после огня рукописи, виден титульный лист, на котором стоит имя автора — Максудов Николай Афанасьевич, название «Понтий Пилат» и год издания — 1934, однако в романе ничего из этого известно не было, а имя Мастера вообще является самой большой загадкой романа. При этом Максудов — герой «Театрального романа» Булгакова, а образы Мастера и Максудова объединены в экранизации 1972 года.
В 5 и 6 сериях присутствует хроника 1930-х годов Красногорского кинофотоархива и кадры из фильма «Девушка с характером».
Таня Ю не только исполнила роль Геллы, но была ещё и каскадёром[5].
Коровьев в исполнении Александра Абдулова в 9-й серии, в эпизоде стрельбы в ресторане «Грибоедов», произносит фразу «Как дети…». Точно такую же фразу произносил его герой Сергей Ненашев в фильме «Гений» и Тетерин в фильме «Настя».
В роли подъезда «нехорошего дома» снялся подъезд «Дома академиков» (Санкт-Петербург, набережная лейтенанта Шмидта, д. 1).
Награды
Премия «ТЭФИ-2006» в номинации «За лучшую режиссуру»
«Специальный приз жюри» на МКФ Биарриц, Франция, 2007
Приз в номинации «Лучший телесериал» на РКФ «Виват кино России», СПб, 2006
Приз в номинации «За лучшую женскую роль» Анне Ковальчук на РКФ «Виват кино России», СПб, 2006
Скриншот c названием фильма
Скриншоты
Download
Чтобы скачать .torrent файл необходима регистрация
Сайт не распространяет и не хранит электронные версии произведений, а лишь предоставляет доступ к создаваемому пользователями каталогу ссылок на торрент-файлы, которые содержат только списки хеш-сумм
[Профиль]  [ЛС] 
 

ylnian

Стаж: 8 лет 2 месяца

Сообщений: 1255

ylnian · 28-Фев-17 18:37 (спустя 37 мин., ред. 01-Мар-17 09:38)

[Цитировать] 

Не FULL-HD, конечно, но очевидно превосходство видео HDTV в чёткости и детализации
[Профиль]  [ЛС] 

Smirnov57

Стаж: 8 лет 11 месяцев

Сообщений: 32


Smirnov57 · 28-Фев-17 18:46 (спустя 9 мин.)

[Цитировать] 

1 серия брак. Исправте.
[Профиль]  [ЛС] 

ylnian

Стаж: 8 лет 2 месяца

Сообщений: 1255

ylnian · 28-Фев-17 19:09 (спустя 22 мин., ред. 01-Мар-17 09:59)

[Цитировать] 

Smirnov57 писал(а):
725866611 серия брак. Исправте.
Принято. Буду искать баг
[Профиль]  [ЛС] 

lecha1981

Стаж: 8 лет 6 месяцев

Сообщений: 70


lecha1981 · 28-Фев-17 19:19 (спустя 10 мин.)

[Цитировать] 

Объем, конечно, побольше + качество чуть получше, но все таки еще до настоящего HD далековато - согласитесь...
[Профиль]  [ЛС] 

NoSayGoodbye

Стаж: 3 года 5 месяцев

Сообщений: 267

NoSayGoodbye · 28-Фев-17 20:52 (спустя 1 час 33 мин.)

[Цитировать] 

lecha1981 писал(а):
72586878до настоящего HD далековато
Все претензии к телеканалу, транслирующему сериал. Автор лишь записывает всё и выкладывает для всех.
[Профиль]  [ЛС] 

lecha1981

Стаж: 8 лет 6 месяцев

Сообщений: 70


lecha1981 · 28-Фев-17 21:19 (спустя 26 мин.)

[Цитировать] 

6eJIblu_BoJIK писал(а):
72587634
lecha1981 писал(а):
72586878до настоящего HD далековато
Все претензии к телеканалу, транслирующему сериал. Автор лишь записывает всё и выкладывает для всех.
а разве я предъявляю претензии к автору торрента?
претензии могут быть лишь к качеству исходного материала и качеству оцифровки...
тут уж мы, простые пользователи торрент-сайтов, бессильны...
[Профиль]  [ЛС] 

Pakin-n-Raqkin

Стаж: 8 лет 1 месяц

Сообщений: 18


Pakin-n-Raqkin · 01-Мар-17 03:56 (спустя 6 часов)

[Цитировать] 

А где же продолжение?
[Профиль]  [ЛС] 

ylnian

Стаж: 8 лет 2 месяца

Сообщений: 1255

ylnian · 01-Мар-17 11:52 (спустя 7 часов, ред. 01-Мар-17 11:52)

[Цитировать] 

Smirnov57 писал(а):
725866611 серия брак. Исправте.
Спасибо за замечание. Действительно с помощью демукса через eac3to обнаружил в 1 серии битый кадр. Благо исходники были ещё на руках: исходный TS был "отремонтирован" с помощью TS-Doctor-а и заново пересобрана 1 серия.
Вместе с добавлением 3 и 4 серий будет заменена и 1 серия. Прошу прощения за подобный казус.
Обновлено 1 марта:
Добавил 3 и 4 серии, исправил ошибку в 1 серии!
[Профиль]  [ЛС] 

Smirnov57

Стаж: 8 лет 11 месяцев

Сообщений: 32


Smirnov57 · 01-Мар-17 13:56 (спустя 2 часа 3 мин.)

[Цитировать] 

Все серии нормально идут. Спасибо за исправление и раздачу. Качество нормальное
[Профиль]  [ЛС] 

hardport

Стаж: 9 лет 2 месяца

Сообщений: 623

hardport · 01-Мар-17 21:00 (спустя 7 часов, ред. 01-Мар-17 21:00)

[Цитировать] 

ylnian писал(а):
725863361080i
Нужно было записывать не в 1080i,а в 1080p.И не каких багов бы не было. http://thedifference.ru/chem-otlichaetsya-1080i-ot-1080p/
P.S Хотя сейчас посмотрел на своём тв,однозначно,лучшего кач-ва ещё не было.
[Профиль]  [ЛС] 

ylnian

Стаж: 8 лет 2 месяца

Сообщений: 1255

ylnian · 02-Мар-17 07:37 (спустя 10 часов)

[Цитировать] 

hardport
Спасибо, конечно, за совет, но у моего провайдера вещание идёт именно в 1080i, и я придерживаюсь принципа минимальных манипуляций с исходником! Максимум, что я себе позволяю - прогнать оригинальный поток через TS-Doctor для выявления и устранения багов, вырезать всю рекламу с помощью VideoReDo TVSuite и упаковать готовую серию в контейнер MKV. Пока что этот мой подход в записи с HDTV меня не подводит, поэтому и от добра искать добра не буду.
[Профиль]  [ЛС] 

se.ver2

Стаж: 6 лет 1 месяц

Сообщений: 74


se.ver2 · 02-Мар-17 11:44 (спустя 4 часа)

[Цитировать] 

ylnian,спасибо большое!
Однозначно лучшее качество из того,что вообще есть.Утверждаю потому,что как раз сейчас заморочился с DVDRip-ом на этот сериал.Скачал обе раздачи DVD,это: Master.I.Margarita.(10.serij.iz.10).2005.4xDVD-9 и Мастер.и.Маргарита.2005.4xDVD9+1xDVD5.Youtracker.Остальное вообще ерунда.
По качеству картинки они практически идентичны и качество это,к сожалению,не очень.Даже дефекты в одних и тех же местах.Видимо исходник у самих DVD общий и он сам не высокого качества.Поэтому соответственно и качество всех DVDRip-ов не очень.
А тут такое...
Интересно,откуда телевизионщики взяли исходник лучшего качества?Его необходимо добыть.
Ни у кого нет хорошего знакомого работающего на ТК Россия?...
Шутка,конечно.
[Профиль]  [ЛС] 

cheeery

Стаж: 6 лет 10 месяцев

Сообщений: 24


cheeery · 03-Мар-17 10:23 (спустя 22 часа)

[Цитировать] 

что с раздачей?где?новые серии?
[Профиль]  [ЛС] 

Smirnov57

Стаж: 8 лет 11 месяцев

Сообщений: 32


Smirnov57 · 03-Мар-17 17:00 (спустя 6 часов)

[Цитировать] 

Кто смотрел, порезанный сериал или нет?
[Профиль]  [ЛС] 

Free_LightMan

Top Bonus 05* 10TB

Стаж: 3 года 7 месяцев

Сообщений: 70

Free_LightMan · 03-Мар-17 23:01 (спустя 6 часов)

[Цитировать] 

Логотип "России" портит всё впечатление. Стиль фильма черно-белый. А тут это.
Ждём исходников.
[Профиль]  [ЛС] 

hardport

Стаж: 9 лет 2 месяца

Сообщений: 623

hardport · 04-Мар-17 07:34 (спустя 8 часов, ред. 06-Мар-17 08:04)

[Цитировать] 

Free_LightMan писал(а):
72609187Логотип "России" портит всё впечатление. Стиль фильма черно-белый. А тут это.
Ждём исходников.
НУ-ну....ждите....
ylnian писал(а):
72604683Добавлены 5-8 серии!
Супер,ещё парочку,плиз!
ylnian
Пардон за назойливость,а когда последние 2-е серии будут?
[Профиль]  [ЛС] 

ylnian

Стаж: 8 лет 2 месяца

Сообщений: 1255

ylnian · 06-Мар-17 19:41 (спустя 2 дня 12 часов, ред. 07-Мар-17 10:30)

[Цитировать] 

hardport писал(а):
Пардон за назойливость,а когда последние 2-е серии будут?
ВНИМАНИЕ!
Т/к Россия-1 HD при показе данного фильма в феврале-марте 2017 года изменил разбивку серий! Теперь их стало 12, а не 10, как было в оригинале. Этим обусловлен и чуть меньший хронометраж серий в моей раздаче - 42 минуты против 51 минуты. В ближайшие дни, в случае показа полностью всех серий по ТВ, мной будут добавлены все недостающие серии. По вырезанным цензурой сценам - ничего сказать не могу, т.к. не сравнивал данную 12-тисерийную версию с 10-тисерийной версией, выходившей на DVD. Если кто-то это сделает и отпишется здесь - тому я буду весьма признателен и благодарен!
Добавлены 9 и 10 серии!
[Профиль]  [ЛС] 

hardport

Стаж: 9 лет 2 месяца

Сообщений: 623

hardport · 07-Мар-17 17:47 (спустя 22 часа, ред. 07-Мар-17 17:47)

[Цитировать] 

ylnian
Интересно,я сам пока не смотрел,но неужели когда начинается бал(шабаш),всё прекрасные части тела у женщин прикрыты,в часности у самой Ковальчук?Я имею ввиду,этими гадкими пятнами(как курение,марки авто).Тогда фильм теряет смысл.....
[Профиль]  [ЛС] 

ylnian

Стаж: 8 лет 2 месяца

Сообщений: 1255

ylnian · 07-Мар-17 18:43 (спустя 55 мин., ред. 07-Мар-17 21:58)

[Цитировать] 

hardport
Все прелести на голе и ничем не прикрыты!!!
[Профиль]  [ЛС] 

hardport

Стаж: 9 лет 2 месяца

Сообщений: 623

hardport · 07-Мар-17 23:18 (спустя 4 часа, ред. 07-Мар-17 23:18)

[Цитировать] 

ylnian писал(а):
72636677hardport
Все прелести на голе и ничем не прикрыты!!!
Ну тогда супер!Только вот ещё не понятно,почему 12 серий?.....обычно если что то вырезают(как то сокращают),по логике,размер наоборот должен быть меньше.
"чуть меньший хронометраж серий в моей раздаче - 42 минуты против 51 минуты"
Получается с каждой серии 9 минут меньше,то есть урезанно 90 минут учитывая что их 10 серий,но если 12 серий,90 делим на 2,получается приблизительно всё ровно,теоретически....
[Профиль]  [ЛС] 

Skvoznyak777

Стаж: 2 года 9 месяцев

Сообщений: 1


Skvoznyak777 · 08-Мар-17 04:26 (спустя 5 часов)

[Цитировать] 

Ну да, это лучшее качество из всего, что есть. ДВД явно превзойдён. Реальное разрешение где-то 1024 х 550 и это немало!
[Профиль]  [ЛС] 

Сударыня

Moderator gray

Стаж: 11 лет 6 месяцев

Сообщений: 11132

Сударыня · 08-Мар-17 15:49 (спустя 11 часов)

[Цитировать] 

ylnian
Добавьте,пожалуйста ,одну ссылку на все раздачи этого сериала, имеющиеся в разделе
О ссылках на предыдущие и альтернативные раздачи..
ylnian писал(а):
72586336Качество видео: HDTV 1080i
Формат видео: MKV
Видео: MPEG-2, 1920x1080, 25.000 fps, ~ 10000 kbps
Аудио: Русский MP2, 48000 Гц, 2ch, 192 kbps
Тех. данные не полные.
О тех.данных
Поставьте, пожалуйста, пробелы, согласно правилам оформления раздач в этом разделе
Постер превышает допустимые пределы 500х500
О постерах/логотипах
[Профиль]  [ЛС] 

galar65

Стаж: 9 лет 4 месяца

Сообщений: 41

galar65 · 09-Мар-17 11:08 (спустя 19 часов)

[Цитировать] 

Когда планируется остаток 2-х серий сериала ?
[Профиль]  [ЛС] 

ylnian

Стаж: 8 лет 2 месяца

Сообщений: 1255

ylnian · 09-Мар-17 12:37 (спустя 1 час 28 мин.)

[Цитировать] 

Сударыня писал(а):
72641373ylnian
Добавьте,пожалуйста ,одну ссылку на все раздачи этого сериала, имеющиеся в разделе
О ссылках на предыдущие и альтернативные раздачи..
ylnian писал(а):
72586336Качество видео: HDTV 1080i
Формат видео: MKV
Видео: MPEG-2, 1920x1080, 25.000 fps, ~ 10000 kbps
Аудио: Русский MP2, 48000 Гц, 2ch, 192 kbps
Тех. данные не полные.
О тех.данных
Поставьте, пожалуйста, пробелы, согласно правилам оформления раздач в этом разделе
Постер превышает допустимые пределы 500х500
О постерах/логотипах
Всё исправил!
Сериал полный!
[Профиль]  [ЛС] 

Сударыня

Moderator gray

Стаж: 11 лет 6 месяцев

Сообщений: 11132

Сударыня · 09-Мар-17 13:45 (спустя 1 час 8 мин.)

[Цитировать] 

ylnian писал(а):
72647261Всё исправил!
Не всё.
[Профиль]  [ЛС] 

ylnian

Стаж: 8 лет 2 месяца

Сообщений: 1255

ylnian · 09-Мар-17 17:41 (спустя 3 часа, ред. 09-Мар-17 17:41)

[Цитировать] 

Сударыня писал(а):
Поставьте, пожалуйста, пробелы, согласно правилам оформления раздач в этом разделе
По Вашей ссылки у меня ничего не открывается. Можете подробнее написать про расстановку пробелов?

Добавил пробел "2 ch"
Исправил и добавил всё, что нашёл!
[Профиль]  [ЛС] 

донатьен

Стаж: 9 лет 11 месяцев

Сообщений: 48

донатьен · 09-Мар-17 19:42 (спустя 2 часа)

[Цитировать] 

так все же, почему 12?
[Профиль]  [ЛС] 

Сударыня

Moderator gray

Стаж: 11 лет 6 месяцев

Сообщений: 11132

Сударыня · 09-Мар-17 19:59 (спустя 17 мин.)

[Цитировать] 

ylnian писал(а):
72648127По Вашей ссылки у меня ничего не открывается. Можете подробнее написать про расстановку пробелов?
По этой http://1.maintracker.org/forum/posting.php?f=9&mode=new_rel
Или тут посмотреть http://1.maintracker.org/forum/viewtopic.php?p=38859998#38859998
Подробно можно посмотреть любую недавно проверенную раздачу
[Профиль]  [ЛС] 

intel7510

Стаж: 1 год 7 месяцев

Сообщений: 13


intel7510 · 25-Мар-17 21:12 (спустя 16 дней)

[Цитировать] 

hardport писал(а):
72638545
ylnian писал(а):
72636677hardport
Все прелести на голе и ничем не прикрыты!!!
Ну тогда супер!Только вот ещё не понятно,почему 12 серий?.....обычно если что то вырезают(как то сокращают),по логике,размер наоборот должен быть меньше.
"чуть меньший хронометраж серий в моей раздаче - 42 минуты против 51 минуты"
Получается с каждой серии 9 минут меньше,то есть урезанно 90 минут учитывая что их 10 серий,но если 12 серий,90 делим на 2,получается приблизительно всё ровно,теоретически....
Учитывая, что сериал смотрят только из-за Анны Ковальчук, логичнее было бы повырезать все, кроме нее, все остальное - муть
[Профиль]  [ЛС] 
 
Ответить
Loading...
Error