Адрес РуТрекера для пользователей РФ - 11.MainTracker.org

Расскажи друзьям:  

Третья жизнь Дарьи Кирилловны / Серии: 1-4 из 4 (Андрей Селиванов) [2017, Мелодрама, HDTVRip]

Страницы:  1

Ответить
Автор
Сообщение

Сибиряк777

Top Seed 05* 640r

Стаж: 10 лет 2 месяца

Сообщений: 3022

Сибиряк777 · 06-Мар-17 10:59 (1 год 9 месяцев назад, ред. 06-Мар-17 11:04)

Третья жизнь Дарьи Кирилловны
Год выпуска: 2017
Производство: Кинокомпания "Русское"
Жанр: Мелодрама
Продолжительность: 01:30:00
Субтитры: нет
Режиссёр: Андрей Селиванов
В ролях: Анна Казючиц, Артём Осипов, Алексей Барабаш, Анна Попова, Константин Адаев, Диана Енакаева, Александр Вдовин, Тимур Ефременков, Татьяна Догилева, Евгения Бурдихина, Екатерина Догилева, Юлия Васильева, Витас Эйзенах, Николай Лавров (II), Сергей Генкин
Описание: Даша выросла (Анна Казючиц) в маленькой бедной деревне с матерью (Наталья Батрак) и пьющим отцом. Она ненавидела такую жизнь и, повзрослев, сразу же уехала в Москву. Как многие провинциалы, девушка сама пробивала себе дорогу к успеху.
Столичная жизнь превратила скромную Дашу в жесткую Дарью Кирилловну – главу модного архитектурного бюро. За несколько лет она добилась всего, о чем мечтала: у нее свое дело, любящий муж Гера (Артем Осипов), партнер в ее фирме и роскошный загородный дом.
Но вдруг накануне важного тендера Дарья Кирилловна исчезает. Ее едва живую строители находят в вагоне с песком. Неделю спустя она приходит в себя в больнице и не может вспомнить ничего о своей прошлой жизни…

Доп. информация: Серии склеены две в одну. 2 файла - 4 серии
Релиз от:
Качество: HDTVRip
Формат: AVI
Видео кодек: XviD
Аудио кодек: AC3
Видео: 720x400 (16:9), 25.000 fps, XviD build 73, 2009 Kbps, 0.27 Bits/Pixel
Аудио: 48 kHz, AC3 Dolby Digital, 2 ch, 192 Kbps

Реклама: Нет
Все раздачи сериала / Сэмпл
MI
General
Complete name : Downloads\Третья жизнь Дарьи Кирилловны.2016.HDTVRip.Files-x\01.Третья жизнь Дарьи Кирилловны.2016.HDTVRip.Files-x.avi
Format : AVI
Format/Info : Audio Video Interleave
File size : 1.37 GiB
Duration : 1h 28mn
Overall bit rate : 2 211 Kbps
Writing application : VirtualDubMod 1.5.10.3 | www.virtualdub-fr.org || (build 2550/release)
Writing library : VirtualDubMod build 2550/release
Video #0
ID : 0
Format : MPEG-4 Visual
Format profile : Advanced [email protected]
Format settings, BVOP : 1
Format settings, QPel : No
Format settings, GMC : No warppoints
Format settings, Matrix : Custom
Codec ID : XVID
Codec ID/Hint : XviD
Duration : 1h 28mn
Bit rate : 2 009 Kbps
Width : 720 pixels
Height : 400 pixels
Display aspect ratio : 16:9
Frame rate : 25.000 fps
Color space : YUV
Chroma subsampling : 4:2:0
Bit depth : 8 bits
Scan type : Progressive
Compression mode : Lossy
Bits/(Pixel*Frame) : 0.279
Stream size : 1.24 GiB (91%)
Writing library : XviD 73
Audio #1
ID : 1
Format : AC-3
Format/Info : Audio Coding 3
Mode extension : CM (complete main)
Format settings, Endianness : Big
Codec ID : 2000
Duration : 1h 28mn
Bit rate mode : Constant
Bit rate : 192 Kbps
Channel(s) : 2 channels
Channel positions : Front: L R
Sampling rate : 48.0 KHz
Bit depth : 16 bits
Compression mode : Lossy
Stream size : 122 MiB (9%)
Alignment : Split accross interleaves
Interleave, duration : 40 ms (1.00 video frame)
Interleave, preload duration : 500 ms
Скриншоты
Download
Чтобы скачать .torrent файл необходима регистрация
Сайт не распространяет и не хранит электронные версии произведений, а лишь предоставляет доступ к создаваемому пользователями каталогу ссылок на торрент-файлы, которые содержат только списки хеш-сумм
[Профиль]  [ЛС] 
 

obmanushkin

Стаж: 8 лет 3 месяца

Сообщений: 211

obmanushkin · 06-Мар-17 13:39 (спустя 2 часа 40 мин.)

[Цитировать] 

[Профиль]  [ЛС] 

1surinam

Стаж: 6 лет 8 месяцев

Сообщений: 145


1surinam · 07-Дек-18 01:21 (спустя 1 год 9 месяцев)

[Цитировать] 

Артём Осипов......мда
[Профиль]  [ЛС] 
 
Ответить
Loading...
Error