Адрес РуТрекера для пользователей РФ - MainTracker.org

Расскажи друзьям:  

Чемпионат Мира 2018 / Отборочный турнир / Южная Америка / 13-й тур / Аргентина - Чили / / Матч ТВ HD[24.03.2017, Футбол, Stream/1080i, TS/H.264, RU]

Страницы:  1

Ответить
Автор
Сообщение

borsol

Стаж: 11 лет 5 месяцев

Сообщений: 450

borsol · 24-Мар-17 04:51 (1 год 3 месяца назад)

Чемпионат Мира 2018 / Отборочный турнир / Южная Америка / 13-й тур / Аргентина - Чили
Вид спорта: Футбол
Дата/Год выпуска: 24.03.2017
Язык комментариев: Русский
Комментатор: Михаил Поленов
Описание: 24 марта 2017, пятница. 02:30 МСК. Южная Америка. 13-й тур
Стадион: Монументаль Антонио Веспуччи Либерти (Буэнос-Айрес, Аргентина) , вместимость: 57921
Главный судья: Сандро Рикки (Посус-ди-Калдас, Бразилия)
Ассистент: Эмерсон де Карвальо (Бразилия)
Ассистент: Марсело Ван Гассе (Бразилия)
Резервный: Деусон Фернандо Фрейтас да Силва (Бразилия)
Автор рипа/записи:
Качество: Stream
Формат видео: TS
Видео: MPEG-4 AVC, ~ 6300 Kбит/с, 1920x1080, 25 кадр/c
Аудио: AAC, 2 ch, 128 Кбит/с
Информация
Продолжительность
01:42:21
Скриншоты
Счёт/Итог
1:0
Download
Чтобы скачать .torrent файл необходима регистрация
Сайт не распространяет и не хранит электронные версии произведений, а лишь предоставляет доступ к создаваемому пользователями каталогу ссылок на торрент-файлы, которые содержат только списки хеш-сумм
[Профиль]  [ЛС] 
 

Kryvbass89

Стаж: 3 года

Сообщений: 40

Kryvbass89 · 24-Мар-17 09:12 (спустя 4 часа)

[Цитировать] 

он есть уже
ALT_aiR писал(а):
72752841Уругвай Бразилия бы еще
[Профиль]  [ЛС] 

borsol

Стаж: 11 лет 5 месяцев

Сообщений: 450

borsol · 24-Мар-17 20:59 (спустя 11 часов)

[Цитировать] 

TONN13 писал(а):
72755504Спасибо.
И тебе спасибо. За то, что не поленился просто поблагодарить нажатием "Поблагодарить", а написал. Пиши, если что из спорта нужно будет, что тут не выставили. Если смогу, то помогу.
[Профиль]  [ЛС] 

ToscanaYP

Стаж: 6 лет 4 месяца

Сообщений: 49


ToscanaYP · 25-Мар-17 00:21 (спустя 3 часа)

[Цитировать] 

Хоть и смотрела этот матч вживую глухой ночью на ноуте ), всё же хотелось его потом себе в архивчик в высоком качестве. Спасибо большое
[Профиль]  [ЛС] 

Striker

Top Seed 07* 2560r

Стаж: 9 лет 8 месяцев

Сообщений: 9184

Striker · 25-Мар-17 01:32 (спустя 1 час 10 мин., ред. 25-Мар-17 01:32)

[Цитировать] 

Цитата:
Stream/1080i
1080p. причем унылый.
скрытый текст
Format : MPEG-TS
File size : 2.25 GiB
Duration : 50mn 48s
Overall bit rate mode : Variable
Overall bit rate : 6 342 Kbps
Video
ID : 67 (0x43)
Menu ID : 1 (0x1)
Format : AVC
Format/Info : Advanced Video Codec
Format profile : Main@L4.1
Format settings, CABAC : No
Format settings, ReFrames : 1 frame

Format settings, GOP : M=1, N=50
Codec ID : 27
Duration : 50mn 48s
Bit rate : 5 902 Kbps
Width : 1 920 pixels
Height : 1 080 pixels
Display aspect ratio : 16:9
Frame rate : 25.000 fps
Color space : YUV
Chroma subsampling : 4:2:0
Bit depth : 8 bits
Scan type : Progressive
Bits/(Pixel*Frame) : 0.114
Stream size : 2.09 GiB (93%)
Audio
ID : 68 (0x44)
Menu ID : 1 (0x1)
Format : AAC
Format/Info : Advanced Audio Codec
Format version : Version 4
Format profile : LC
Muxing mode : ADTS
Codec ID : 15
Duration : 50mn 48s
Bit rate mode : Variable
Bit rate : 126 Kbps
Channel count : 2 channels
Channel positions : Front: L R
Sampling rate : 48.0 KHz
Compression mode : Lossy
Stream size : 45.7 MiB (2%)
[Профиль]  [ЛС] 
 
Ответить
Loading...
Error