Адрес РуТрекера для пользователей РФ - 11.MainTracker.org

Расскажи друзьям:  

Дом у последнего фонаря / Серии: 1-4 из 4 (Николай Барышников) [2017, Детектив, мелодрама, экранизация, WEBRip]

Страницы:  1

Ответить
Автор
Сообщение

Сибиряк777

Top Seed 05* 640r

Стаж: 10 лет 2 месяца

Сообщений: 3022

Сибиряк777 · 23-Апр-17 13:24 (1 год 7 месяцев назад)

Дом у последнего фонаря
Год выпуска: 2017
Производство: Марс Медиа Энтертейнмент, Кинокомпания Парк Синема
Жанр: Детектив, мелодрама, экранизация
Продолжительность: 00:45:00
Субтитры: нет
Режиссёр: Николай Барышников
В ролях: Елена Великанова, Дмитрий Бедерин, Любовь Германова, Валерий Сторожик, Максим Щёголев, Сергей Подольный, Александр Константинов, Екатерина Кульчицкая, Юлия Юрченко
Описание: По одноименному роману Анны Малышевой.
Саша Корзухина, талантливый реставратор, неожиданно оказывается подозреваемой. Убит знаменитый антиквар Лыгин. А Саша была у него прошлым вечером. По его просьбе она приехала к нему на дачу, но Лыгина там не нашла. А утром, вернувшись, обнаружила его труп. Через несколько дней Саша вновь оказывается на месте преступления. Убит коллекционер, и опять у Саши была назначена с ним встреча. Следователь Греков серьезно подозревает Сашу. И ей ничего не остается, как самой взяться за поиски преступника и попытаться разобраться, что же ищет убийца, который всегда оказывается на шаг впереди

Все раздачи сериала / Сэмпл
Релиз от:
Качество: WEBRip
Формат: AVI
Видео кодек: XviD
Аудио кодек: AC3
Видео: 720x400 (16:9), 25.000 fps, XviD build 73, 1650 Kbps, 0.22 Bits/Pixel
Аудио: 48 kHz, AC3 Dolby Digital, 2 ch, 192 Kbps

Реклама: Нет
MI
General
Complete name : Downloads\Дом у последнего фонаря.2017.WEB-DLRip.Files-x
Format : AVI
Format/Info : Audio Video Interleave
File size : 587 MiB
Duration : 44mn 17s
Overall bit rate : 1 852 Kbps
Writing application : VirtualDubMod 1.5.10.3 | www.virtualdub-fr.org || (build 2550/release)
Writing library : VirtualDubMod build 2550/release
Video #0
ID : 0
Format : MPEG-4 Visual
Format profile : Advanced [email protected]
Format settings, BVOP : 1
Format settings, QPel : No
Format settings, GMC : No warppoints
Format settings, Matrix : Custom
Codec ID : XVID
Codec ID/Hint : XviD
Duration : 44mn 17s
Bit rate : 1 650 Kbps
Width : 720 pixels
Height : 400 pixels
Display aspect ratio : 16:9
Frame rate : 25.000 fps
Color space : YUV
Chroma subsampling : 4:2:0
Bit depth : 8 bits
Scan type : Progressive
Compression mode : Lossy
Bits/(Pixel*Frame) : 0.229
Stream size : 523 MiB (89%)
Writing library : XviD 73
Audio #1
ID : 1
Format : AC-3
Format/Info : Audio Coding 3
Mode extension : CM (complete main)
Format settings, Endianness : Big
Codec ID : 2000
Duration : 44mn 17s
Bit rate mode : Constant
Bit rate : 192 Kbps
Channel(s) : 2 channels
Channel positions : Front: L R
Sampling rate : 48.0 KHz
Bit depth : 16 bits
Compression mode : Lossy
Stream size : 60.8 MiB (10%)
Alignment : Split accross interleaves
Interleave, duration : 40 ms (1.00 video frame)
Interleave, preload duration : 500 ms
Скриншоты
Download
Чтобы скачать .torrent файл необходима регистрация
Сайт не распространяет и не хранит электронные версии произведений, а лишь предоставляет доступ к создаваемому пользователями каталогу ссылок на торрент-файлы, которые содержат только списки хеш-сумм
[Профиль]  [ЛС] 
 

zrenbz

Стаж: 10 лет

Сообщений: 83


zrenbz · 23-Апр-17 14:31 (спустя 1 час 6 мин.)

[Цитировать] 

Мыло-мыльное...И так раздражают в "детективах" туповатые главные героини...Одной серии хватило....Раздающему-спасибо!
[Профиль]  [ЛС] 

lady Wong

Стаж: 7 лет 1 месяц

Сообщений: 1465


lady Wong · 24-Апр-17 00:37 (спустя 10 часов)

[Цитировать] 

На выходной сойдет.
Главную героиню могли бы похаризматичней подобрать.)
[Профиль]  [ЛС] 

fdr47

Стаж: 5 лет

Сообщений: 58


fdr47 · 21-Май-17 11:31 (спустя 27 дней)

[Цитировать] 

почему следователей показывают в фильмах, таких тупых или на самом деле они ещё дурнее!
[Профиль]  [ЛС] 

nikitahrushov

Стаж: 9 лет 4 месяца

Сообщений: 110

nikitahrushov · 30-Май-17 22:23 (спустя 9 дней)

[Цитировать] 

Сериал конечно наивно-женский, но очень качественно покрашен, смотреть прям глаз радует.
[Профиль]  [ЛС] 

ANTISSA

Стаж: 8 лет 1 месяц

Сообщений: 365


ANTISSA · 31-Май-17 13:36 (спустя 15 часов)

[Цитировать] 

nikitahrushov писал(а):
73212599Сериал конечно наивно-женский, но очень качественно покрашен, смотреть прям глаз радует.
понятно - для домохозяек..,
[Профиль]  [ЛС] 

касанна

Победители конкурсов

Стаж: 8 лет 10 месяцев

Сообщений: 8226

касанна · 25-Дек-17 16:41 (спустя 6 месяцев)

[Цитировать] 

Там, где играет Любовь Германова, смотреть однозначно! Это наше достояние.
[Профиль]  [ЛС] 

lady Wong

Стаж: 7 лет 1 месяц

Сообщений: 1465


lady Wong · 25-Дек-17 19:33 (спустя 2 часа 52 мин.)

[Цитировать] 

Интересный постер!)
Кто нибудь сможет об"яснить как он относится к сюжету?
[Профиль]  [ЛС] 

1surinam

Стаж: 6 лет 8 месяцев

Сообщений: 145


1surinam · 07-Дек-18 01:35 (спустя 11 месяцев)

[Цитировать] 

фонарный сериал я так понимаю...
[Профиль]  [ЛС] 
 
Ответить
Loading...
Error