Адрес РуТрекера для пользователей РФ - MainTracker.org

Расскажи друзьям:  

Цвет спелой вишни / Серии: 1-4 из 4 (Пётр Степин) [2017, Мелодрама, WEBRip]

Страницы:  1

Ответить
Автор
Сообщение

Сибиряк777

Top Seed 05* 640r

Стаж: 9 лет 7 месяцев

Сообщений: 2746

Сибиряк777 · 14-Май-17 11:25 (11 месяцев назад)

Цвет спелой вишни
Год выпуска: 2017
Производство: Паламеда Продакшн
Жанр: Мелодрама
Продолжительность: 00:45:00
Субтитры: нет
Режиссёр: Пётр Степин
В ролях: Евгения Нохрина, Дмитрий Пчела, Пётр Баранчеев, Елизавета Шукова, Андрей Сенькин, Оксана Лесная, Олеся Пуховая, Олег Гарбуз, Ефим Цуба
Описание: Еще вчера у Кати (Евгения Нохрина) не было забот. Да и откуда они возьмутся, если твоя мама – высокопоставленный чиновник? А еще они с Иваном (Андрей Сенькин) любят друг друга и скоро поженятся… Все меняется в одночасье, когда мать арестовывают по подозрению в коррупции и отбирают квартиру.
Сестра Кати - Лиза рожает сына Владика и перекладывает все заботы о нем на плечи Кати. Но Иван не рад чужому ребенку, им приходится расстаться. Катя остается одна без денег и с ребенком на руках.
Но вскоре жизнь снова дает надежду на счастье. Катя знакомится с бизнесменом Михаилом (Дмитрий Пчела). Он искренне полюбил Катю и малыша, и Катя готовится переехать к нему в Лондон. Но накануне отъезда к девушке возвращается Иван и предлагает начать все сначала. Катя понимает, что чувства к Ване не прошли. Она решает не лететь в Лондон.
Но вскоре Катя начинает замечать, что Иван слишком строг к ее сыну. А вскоре на пороге Кати заявляется бабушка (Оксана Лесная) Владика и требует отдать внука…
Доп. информация: Серии склеены, две в одну. 2 файла - 4 серии
Релиз от:
Качество: WEBRip
Формат: AVI
Видео кодек: XviD
Аудио кодек: AC3
Видео: 720x400 (16:9), 25.000 fps, XviD build 73, 1 526 Kbps, 0.21 bits/pixel
Аудио: 48 KHz, AC3 Dolby Digital, 2 ch, 192 Kbps
Все раздачи сериала
Сэмпл

Реклама: Нет
MI
C:\Users\Andreas\Downloads\Цвет спелой вишни.2017.WEB-DLRip.Files-x\01.Цвет спелой вишни.2017.WEB-DLRip.Files-x.avi
General
Complete name : C:\Users\Andreas\Downloads\Цвет спелой вишни.2017.WEB-DLRip.Files-x\01.Цвет спелой вишни.2017.WEB-DLRip.Files-x.avi
Format : AVI
Format/Info : Audio Video Interleave
File size : 1.36 GiB
Duration : 1h 30mn
Overall bit rate : 2 149 Kbps
Writing application : VirtualDubMod 1.5.10.3 | www.virtualdub-fr.org || (build 2550/release)
Writing library : VirtualDubMod build 2550/release
Video #0
ID : 0
Format : MPEG-4 Visual
Format profile : Advanced Simple@L5
Format settings, BVOP : 1
Format settings, QPel : No
Format settings, GMC : No warppoints
Format settings, Matrix : Custom
Codec ID : XVID
Codec ID/Hint : XviD
Duration : 1h 30mn
Bit rate : 1 947 Kbps
Width : 720 pixels
Height : 400 pixels
Display aspect ratio : 16:9
Frame rate : 25.000 fps
Color space : YUV
Chroma subsampling : 4:2:0
Bit depth : 8 bits
Scan type : Progressive
Compression mode : Lossy
Bits/(Pixel*Frame) : 0.270
Stream size : 1.24 GiB (91%)
Writing library : XviD 73
Audio #1
ID : 1
Format : AC-3
Format/Info : Audio Coding 3
Mode extension : CM (complete main)
Format settings, Endianness : Big
Codec ID : 2000
Duration : 1h 30mn
Bit rate mode : Constant
Bit rate : 192 Kbps
Channel(s) : 2 channels
Channel positions : Front: L R
Sampling rate : 48.0 KHz
Bit depth : 16 bits
Compression mode : Lossy
Stream size : 125 MiB (9%)
Alignment : Split accross interleaves
Interleave, duration : 40 ms (1.00 video frame)
Interleave, preload duration : 500 ms
Скриншоты
Download
Чтобы скачать .torrent файл необходима регистрация
Сайт не распространяет и не хранит электронные версии произведений, а лишь предоставляет доступ к создаваемому пользователями каталогу ссылок на торрент-файлы, которые содержат только списки хеш-сумм
[Профиль]  [ЛС] 
 

obmanushkin

Стаж: 7 лет 8 месяцев

Сообщений: 211

obmanushkin · 15-Май-17 08:39 (спустя 21 час)

[Цитировать] 

[Профиль]  [ЛС] 

frecords72

Стаж: 9 лет 5 месяцев

Сообщений: 416

frecords72 · 13-Янв-18 17:26 (спустя 7 месяцев)

[Цитировать] 

Если вы хотите увидеть фильм, где трудно найти адекватного человека, это кино для вас.
[Профиль]  [ЛС] 
 
Ответить
Loading...
Error