Адрес РуТрекера для пользователей РФ - MainTracker.org

Расскажи друзьям:  

В бегах / Серии: 1-4 из 4 (Виктория Держицкая) [2014, Детектив, комедия, HDTV 1080i]

Страницы:  1

Ответить
Автор
Сообщение

ylnian

Стаж: 7 лет 8 месяцев

Сообщений: 904

ylnian · 14-Май-17 12:18 (1 год назад, ред. 17-Май-17 17:38)

В бегах
Год выпуска: 2014
Производство: ООО "Рекун-Синема"
Жанр: Детектив, комедия
Продолжительность: ~ 44 мин
Субтитры: Отсутствуют
Режиссёр: Виктория Держицкая
В ролях: Андрей Финягин, Екатерина Федулова, Анна Гуляренко, Михаил Ремизов, Софья Каштанова, Анна Масальская (II), Екатерина Куликова, Николай Разуменко, Владимир Капустин, Михаил Тяжев, Александр Чернявский (II), Дмитрий Ратомский
Описание: Кинопродюсер Виталий и оперная певица Любовь, потерявшая голос, — молодая семья, в которой больше нет ни понимания, ни верности. Герои собираются развестись, но их планам мешает арест по обвинению в крупном ограблении. Сбежав при первой же возможности, супруги пытаются вычислить истинных преступников, а заодно разобраться в своих отношениях.
Доп. информация:
Автор релиза -
Источник - HDTV 1080i TS - моя запись с канала Россия-1 HD
Телеканал при показе объединил серии, поэтому в раздаче 2 части, а не 4
Рекламы нет!
Все раздачи сериала


Сэмпл: https://yadi.sk/i/L45a-zl83J7RVK
Качество видео: HDTV 1080i
Формат видео: TS
Видео кодек: AVC
Аудио кодек: МР2
Видео: 1920x1080 (16:9), 25.000 fps, ~ 4750 kbps, ~ 0.09 bit/pixel
Аудио: 48000 Гц, 2 ch, 192 kbps
MediaInfo
Общее
Идентификатор : 1 (0x1)
Полное имя : D:\В.бегах.2014.HDTV.1080i-ylnian\Часть 1.ts
Формат : MPEG-TS
Размер файла : 3,09 Гбайт
Продолжительность : 1 ч. 27 м.
Режим общего битрейта : Переменный
Общий поток : 5077 Кбит/сек
Видео
Идентификатор : 1178 (0x49A)
Идентификатор меню : 1138 (0x472)
Формат : AVC
Формат/Информация : Advanced Video Codec
Профиль формата : High@L4
Параметр CABAC формата : Да
Параметр ReFrames формата : 4 кадра
Идентификатор кодека : 27
Продолжительность : 1 ч. 27 м.
Битрейт : 4632 Кбит/сек
Ширина : 1920 пикселей
Высота : 1080 пикселей
Соотношение сторон : 16:9
Частота кадров : 25,000 кадров/сек
Стандарт вещания : Component
Цветовое пространство : YUV
Субдискретизация насыщенности : 4:2:0
Битовая глубина : 8 бит
Тип развёртки : Чересстрочная
Метод сохранения типа развёртки : Раздельные поля
Порядок развёртки : Верхнее поле первое
Бит/(Пиксели*Кадры) : 0.089
Размер потока : 2,82 Гбайт (91%)
Цветовой диапазон : Limited
Основные цвета : BT.709
Характеристики трансфера : BT.709
Коэффициенты матрицы : BT.709
Аудио
Идентификатор : 1179 (0x49B)
Идентификатор меню : 1138 (0x472)
Формат : MPEG Audio
Версия формата : Version 1
Профиль формата : Layer 2
Идентификатор кодека : 3
Продолжительность : 1 ч. 27 м.
Вид битрейта : Постоянный
Битрейт : 192 Кбит/сек
Каналы : 2 канала
Частота : 48,0 КГц
Метод сжатия : С потерями
Задержка видео : -120 мс.
Размер потока : 120 Мбайт (4%)
Язык : Russian
Общее
Идентификатор : 1 (0x1)
Полное имя : D:\В.бегах.2014.HDTV.1080i-ylnian\Часть 2.ts
Формат : MPEG-TS
Размер файла : 3,30 Гбайт
Продолжительность : 1 ч. 27 м.
Режим общего битрейта : Переменный
Общий поток : 5423 Кбит/сек
Видео
Идентификатор : 1178 (0x49A)
Идентификатор меню : 1138 (0x472)
Формат : AVC
Формат/Информация : Advanced Video Codec
Профиль формата : High@L4
Параметр CABAC формата : Да
Параметр ReFrames формата : 4 кадра
Идентификатор кодека : 27
Продолжительность : 1 ч. 27 м.
Битрейт : 4962 Кбит/сек
Ширина : 1920 пикселей
Высота : 1080 пикселей
Соотношение сторон : 16:9
Частота кадров : 25,000 кадров/сек
Стандарт вещания : Component
Цветовое пространство : YUV
Субдискретизация насыщенности : 4:2:0
Битовая глубина : 8 бит
Тип развёртки : Чересстрочная
Метод сохранения типа развёртки : Раздельные поля
Порядок развёртки : Верхнее поле первое
Бит/(Пиксели*Кадры) : 0.096
Размер потока : 3,02 Гбайт (92%)
Цветовой диапазон : Limited
Основные цвета : BT.709
Характеристики трансфера : BT.709
Коэффициенты матрицы : BT.709
Аудио
Идентификатор : 1179 (0x49B)
Идентификатор меню : 1138 (0x472)
Формат : MPEG Audio
Версия формата : Version 1
Профиль формата : Layer 2
Идентификатор кодека : 3
Продолжительность : 1 ч. 27 м.
Вид битрейта : Постоянный
Битрейт : 192 Кбит/сек
Каналы : 2 канала
Частота : 48,0 КГц
Метод сжатия : С потерями
Задержка видео : -120 мс.
Размер потока : 120 Мбайт (4%)
Язык : Russian
Скриншот c названием фильма
Скриншоты
Download
Чтобы скачать .torrent файл необходима регистрация
Сайт не распространяет и не хранит электронные версии произведений, а лишь предоставляет доступ к создаваемому пользователями каталогу ссылок на торрент-файлы, которые содержат только списки хеш-сумм
[Профиль]  [ЛС] 
 

Сударыня

Moderator gray

Стаж: 11 лет 1 месяц

Сообщений: 10905

Сударыня · 17-Май-17 16:13 (спустя 3 дня)

[Цитировать] 

ylnian писал(а):
73108872В бегах / Серии: 1-2 из 2 (Виктория Держицкая) [2014, Детектив, комедия, HDTV 1080i]
Серии сдвоены, значить писать надо 1-4 из 4.
Можно это указать в доп. информации.
[Профиль]  [ЛС] 

ylnian

Стаж: 7 лет 8 месяцев

Сообщений: 904

ylnian · 17-Май-17 17:38 (спустя 1 час 25 мин.)

[Цитировать] 

Сударыня писал(а):
73127862
ylnian писал(а):
73108872В бегах / Серии: 1-2 из 2 (Виктория Держицкая) [2014, Детектив, комедия, HDTV 1080i]
Серии сдвоены, значить писать надо 1-4 из 4.
Можно это указать в доп. информации.
Готово!
[Профиль]  [ЛС] 

Сударыня

Moderator gray

Стаж: 11 лет 1 месяц

Сообщений: 10905

Сударыня · 17-Май-17 18:06 (спустя 27 мин.)

[Цитировать] 

ylnian писал(а):
73128269Готово
Благодарю
[Профиль]  [ЛС] 

ProviZor1981

Стаж: 7 лет 7 месяцев

Сообщений: 58


ProviZor1981 · 15-Май-18 21:14 (спустя 11 месяцев)

[Цитировать] 

Дайте докачать, плз- уже 2 недели как все застряло на 87%(((
[Профиль]  [ЛС] 

oboltus1973

Стаж: 6 лет 9 месяцев

Сообщений: 28


oboltus1973 · 16-Май-18 08:16 (спустя 11 часов)

[Цитировать] 

Смешно хоть?
[Профиль]  [ЛС] 
 
Ответить
Loading...
Error