Адрес РуТрекера для пользователей РФ - 11.MainTracker.org

Расскажи друзьям:  

Алуника Добровольская - Тайный язык женских денег [2016, отношения, деньги, CAMRip, RUS] (Видеоурок)

Страницы:  1

Ответить
Автор
Сообщение

Маргаритkа

Admin

Стаж: 11 лет 11 месяцев

Сообщений: 9342

Маргаритkа · 31-Май-17 02:22 (2 года 1 месяц назад)

Алуника Добровольская - Тайный язык женских денег
Страна: Россия
Тематика: отношения, деньги
Тип раздаваемого материала: Видеоурок
Год выпуска: 2016
Язык: Русский
Перевод: Не требуется
Об авторе: Алуника Добровольская — трансформационный коуч — называет себя консультантом умных и красивых женщин. Алуника разработала собственную систему психологической помощи людям и в течение многих лет приезжает с тренингами в разные страны. Среди тем, которые мастерски поднимает Алуника, — личные отношения, целеполагание, успешное развитие бизнеса, архетипное восприятие действительности, защита от «токсичных» взаимоотношений.
Описание: ВПЕРВЫЕ! Вербальные и лингвистические формулы женского обращения с деньгами.
НЛП методы работы с денежным потоком.
Техники, соединяющие деньги и женскую сущность c финансовым доходом.
Правила поведения с деньгами в семье, женском бизнесе и личной жизни женщины.
Цель программы: Дать вам уникальные женские практики увеличения личного финансового потока.
Девиз программы: У мира есть для тебя много денег! Прими их!
Что в программе?
1. Как понять, что делать, чтобы легко получать, что хочешь?
2. Как сделать себя богаче? Снимаем покровы тайны со своих возможностей.
3. Каковы самые страшные ошибки женщин по отношению к деньгам?
4. Как и что нужно делать, чтобы деньги тебя любили и тянулись к тебе?
Женский способ общения с деньгами.
5. Каковы истинно женские технологии взаимодействия с деньгами?
6. Что такое классные результаты по-женски и почему они обязательно должны отличаться от мужских?
Особенность программы: активные ингредиенты Женского Нейро Программирования, которые обеспечивают максимально высокий результат.
К сожалению, качеством нас не балуют, курс предоставлен именно так, как куплен у автора.
Часть 1
Продолжительность: 01:37:46
Качество: CAMRip
Формат: MP4
Видео кодек: H.264
Аудио кодек: AAC
Видео: MPEG4 Video (H264) 1280x720 25fps 1026kbps
Аудио: AAC 44100Hz stereo 125kbps
MediaInfo
General
Complete name : D:\rd\Алуника Добровольская - Тайный язык женских денег\Тайный язык женских денег. 1 часть..mp4
Format : MPEG-4
Format profile : Base Media / Version 2
Codec ID : mp42
File size : 808 MiB
Duration : 1h 37mn
Overall bit rate mode : Variable
Overall bit rate : 1 156 Kbps
Encoded date : UTC 2016-09-27 09:43:48
Tagged date : UTC 2016-09-27 09:43:48
gsst : 0
gstd : 5866335
Video
ID : 1
Format : AVC
Format/Info : Advanced Video Codec
Format profile : [email protected]
Format settings, CABAC : Yes
Format settings, ReFrames : 3 frames
Codec ID : avc1
Codec ID/Info : Advanced Video Coding
Duration : 1h 37mn
Bit rate : 1 027 Kbps
Width : 1 280 pixels
Height : 720 pixels
Display aspect ratio : 16:9
Frame rate mode : Constant
Frame rate : 25.000 fps
Color space : YUV
Chroma subsampling : 4:2:0
Bit depth : 8 bits
Scan type : Progressive
Bits/(Pixel*Frame) : 0.045
Stream size : 718 MiB (89%)
Title : ISO Media file produced by Google Inc.
Encoded date : UTC 2016-09-27 09:43:48
Tagged date : UTC 2016-09-27 09:43:48
Color primaries : BT.709
Transfer characteristics : BT.709
Matrix coefficients : BT.709
Audio
ID : 2
Format : AAC
Format/Info : Advanced Audio Codec
Format profile : LC
Codec ID : 40
Duration : 1h 37mn
Bit rate mode : Variable
Bit rate : 126 Kbps
Channel(s) : 2 channels
Channel positions : Front: L R
Sampling rate : 44.1 KHz
Compression mode : Lossy
Stream size : 87.8 MiB (11%)
Title : ISO Media file produced by Google Inc.
Encoded date : UTC 2016-09-27 09:43:48
Tagged date : UTC 2016-09-27 09:43:48
Скриншоты
Часть 2
Продолжительность: 00:59:29
Качество: CAMRip
Формат: MP4
Видео кодек: H.264
Аудио кодек: AAC
Видео: MPEG4 Video (H264) 1280x720 25fps 1459kbps
Аудио: AAC 44100Hz stereo 125kbps
MediaInfo
General
Complete name : D:\rd\Алуника Добровольская - Тайный язык женских денег\Тайный язык женских денег. 2 часть..mp4
Format : MPEG-4
Format profile : Base Media / Version 2
Codec ID : mp42
File size : 676 MiB
Duration : 59mn 28s
Overall bit rate mode : Variable
Overall bit rate : 1 588 Kbps
Encoded date : UTC 2016-09-08 14:43:19
Tagged date : UTC 2016-09-08 14:43:19
gsst : 0
gstd : 3569255
Video
ID : 1
Format : AVC
Format/Info : Advanced Video Codec
Format profile : [email protected]
Format settings, CABAC : Yes
Format settings, ReFrames : 3 frames
Codec ID : avc1
Codec ID/Info : Advanced Video Coding
Duration : 59mn 28s
Bit rate : 1 459 Kbps
Width : 1 280 pixels
Height : 720 pixels
Display aspect ratio : 16:9
Frame rate mode : Constant
Frame rate : 25.000 fps
Color space : YUV
Chroma subsampling : 4:2:0
Bit depth : 8 bits
Scan type : Progressive
Bits/(Pixel*Frame) : 0.063
Stream size : 621 MiB (92%)
Title : ISO Media file produced by Google Inc.
Encoded date : UTC 2016-09-08 14:43:19
Tagged date : UTC 2016-09-08 14:43:19
Color primaries : BT.709
Transfer characteristics : BT.709
Matrix coefficients : BT.709
Audio
ID : 2
Format : AAC
Format/Info : Advanced Audio Codec
Format profile : LC
Codec ID : 40
Duration : 59mn 28s
Bit rate mode : Variable
Bit rate : 126 Kbps
Channel(s) : 2 channels
Channel positions : Front: L R
Sampling rate : 44.1 KHz
Compression mode : Lossy
Stream size : 53.4 MiB (8%)
Title : ISO Media file produced by Google Inc.
Encoded date : UTC 2016-09-08 14:43:19
Tagged date : UTC 2016-09-08 14:43:19
Скриншоты
Download
Чтобы скачать .torrent файл необходима регистрация
Сайт не распространяет и не хранит электронные версии произведений, а лишь предоставляет доступ к создаваемому пользователями каталогу ссылок на торрент-файлы, которые содержат только списки хеш-сумм
[Профиль]  [ЛС] 
 
 
Ответить
Loading...
Error