Адрес РуТрекера для пользователей РФ - 11.MainTracker.org

Расскажи друзьям:  

Отель Элеон / Сезон: 2 / Серии: 1-21 из 21(Антон Федотов, Антон Маслов, Екатерина Забулонская) [2017, Комедия, WEBRip 1080p]

Страницы:  1

Ответить
Автор
Сообщение

74743fg6436

Стаж: 4 года 4 месяца

Сообщений: 54

74743fg6436 · 03-Июн-17 20:39 (1 год 6 месяцев назад, ред. 15-Июн-17 23:14)

Отель Элеон
Год выпуска: 2017
Производство: Sister's Production, Yellow, B
Жанр: Комедия
Продолжительность: 00:52:30
Субтитры: нет
Режиссёр: Антон Федотов, Антон Маслов, Екатерина Забулонская
В ролях: Григорий Сиятвинда, Милош Бикович, Елена Ксенофонтова, Сергей Лавыгин, Виктор Хориняк, Ольга Кузьмина, Екатерина Вилкова, Диана Пожарская, Тимур Еремеев, Рина Гришина, Данила Рассомахин, Павел Рассомахин, Анна Бегунова, Владислав Ветров, Сергей Подольный, Филипп Бледный, Олег Гаас, Ольга Веникова, Анна Барсукова, Руслан Ягудин, Анна Чернович, Екатерина Коновалова, Александра Кузенкина, Наталья Щукина
Описание: Новый сериал телеканала СТС, который продолжит историю комедийного хита «Кухня». Шеф-повар Виктор Баринов ушел на пенсию, а Элеонора Андреевна встретила мужчину своей мечты и уехала в Петербург — на этом закончился финальный сезон «Кухни». Но жизнь в отеле и ресторане продолжается: Михаил Джекович по-прежнему отвечает за порядок в «Элеоне», шеф-поваром ресторана Victor назначили Сеню, а Настя получает неожиданное повышение, что совсем не радует Костю. Все идет своим чередом, пока отель не возглавляет Павел — непутевый племянник прежней хозяйки. Чтобы не разочаровать тетю и сохранить бизнес, он переманивает из Брюсселя суперменеджера Софию Толстую. Новая управляющая устанавливает свои правила, и теперь отель ждут серьезные перемены, которые переворачивают с ног на голову не только привычный уклад «Элеона», но и личные планы героев.
Релиз группа
Реклама: Сторонней рекламы нет!

Все раздачи сериала
Качество: WEBRip 1080p
Формат: MKV
Видео кодек: H.264
Аудио кодек: AC3
Видео: MPEG-4 AVC, 1920x1080 (16:9), 25 000 fps, 5120 Kbps, 0.076 bits/pixel
Аудио: 48 KHz, AC3 Dolby Digital, 2 ch, 192 Kbps
Скриншоты
MediaInfo
Общее
Уникальный идентификатор : 292921394365869035558725711556486377224 (0xDC5E9BC516C689D4078FD5AFE69C2F08)
Полное имя : D:\Otel.eleon.S02.WEB-DL.1080.Files-x\03. Otel.eleon.S02.WEB-DL.1080.Files-x.mkv
Формат : Matroska
Версия формата : Version 4 / Version 2
Размер файла : 912 Мбайт
Продолжительность : 24 м. 25 с.
Общий поток : 5220 Кбит/сек
Программа кодирования : Lavf56.25.101
Библиотека кодирования : Lavf56.25.101 / Lavf56.25.101
Видео
Идентификатор : 1
Формат : AVC
Формат/Информация : Advanced Video Codec
Профиль формата : [email protected]
Параметр CABAC формата : Нет
Параметр ReFrames формата : 3 кадра
Идентификатор кодека : V_MPEG4/ISO/AVC
Продолжительность : 24 м. 25 с.
Битрейт : 5000 Кбит/сек
Ширина : 1920 пикселей
Высота : 1080 пикселей
Соотношение сторон : 16:9
Режим частоты кадров : Постоянный
Частота кадров : 25,000 кадров/сек
Цветовое пространство : YUV
Субдискретизация насыщенности : 4:2:0
Битовая глубина : 8 бит
Тип развёртки : Прогрессивная
Бит/(Пиксели*Кадры) : 0.096
Размер потока : 860 Мбайт (94%)
Библиотека кодирования : x264 core 148
Настройки программы : cabac=0 / ref=3 / deblock=1:0:0 / analyse=0x1:0x111 / me=hex / subme=7 / psy=1 / psy_rd=1.00:0.00 / mixed_ref=1 / me_range=16 / chroma_me=1 / trellis=1 / 8x8dct=0 / cqm=0 / deadzone=21,11 / fast_pskip=1 / chroma_qp_offset=-2 / threads=24 / lookahead_threads=4 / sliced_threads=0 / nr=0 / decimate=1 / interlaced=0 / bluray_compat=0 / constrained_intra=0 / bframes=0 / weightp=0 / keyint=250 / keyint_min=25 / scenecut=40 / intra_refresh=0 / rc_lookahead=40 / rc=abr / mbtree=1 / bitrate=5000 / ratetol=1.0 / qcomp=0.60 / qpmin=0 / qpmax=69 / qpstep=4 / ip_ratio=1.40 / aq=1:1.00
Default : Да
Forced : Нет
Аудио
Идентификатор : 2
Формат : AC-3
Формат/Информация : Audio Coding 3
Расширение режима : CM (complete main)
Параметр Endianness формата : Big
Идентификатор кодека : A_AC3
Продолжительность : 24 м. 25 с.
Вид битрейта : Постоянный
Битрейт : 192 Кбит/сек
Каналы : 2 канала
Расположение каналов : Front: L R
Частота : 48,0 КГц
Частота кадров : 31,250 кадров/сек (1536 spf)
Битовая глубина : 16 бит
Метод сжатия : С потерями
Размер потока : 33,5 Мбайт (4%)
Default : Да
Forced : Нет
Внимание! Раздача ведётся путём добавления новых серий!
Внимание! Раздача ведётся путём добавления новых серий
Внимание! Раздача ведётся путём добавления новых серий; при каждом добавлении создётся новый торрент.
Чтобы начать докачку новой серии, пользователям необходимо сделать следующее:
1) остановить скачивание
2) удалить старый торрент у себя из клиента (старые серии удалять не надо)
3) скачать новый торрент и запустить его у себя в клиенте вместо старого, при этом указать клиенту путь в старую папку куда и должно происходить скачивание новых серий.
Ваш клиент при этом должен произвести хеширование (проверку) старой папки (если не производит сам - помогите ему сделать это), и будет докачивать только те серии которых у вас ещё нет. Старые серии при этом не удаляются, а продолжают раздаваться!
Eсли вы уже удалили старые серии, то предотвратить повторную закачку старых серий можно, отжав галочку в соответствовавших местах при запуске нового торрента.
Download
Чтобы скачать .torrent файл необходима регистрация
Сайт не распространяет и не хранит электронные версии произведений, а лишь предоставляет доступ к создаваемому пользователями каталогу ссылок на торрент-файлы, которые содержат только списки хеш-сумм
[Профиль]  [ЛС] 
 

Сударыня

Moderator gray

Стаж: 11 лет 7 месяцев

Сообщений: 11160

Сударыня · 03-Июн-17 20:42 (спустя 3 мин.)

[Цитировать] 

74743fg6436 писал(а):
7323555150.000 fps
Статус будет # сомнительно
[Профиль]  [ЛС] 

drakula05

RG Русские сериалы

Стаж: 11 лет 1 месяц

Сообщений: 649

drakula05 · 04-Июн-17 12:01 (спустя 15 часов)

[Цитировать] 

Сударыня писал(а):
73235564
74743fg6436 писал(а):
7323555150.000 fps
Статус будет # сомнительно
от куда взялись эти 50.000 fps??? раздача моя и тех.данные вот
скрытый текст
Общее
Уникальный идентификатор : 200523823431926091473315326421136419607 (0x96DB7BCDEF27C9DBF555E314B8C5AB17)
Полное имя : C:\Users\user\Desktop\13.mkv
Формат : Matroska
Версия формата : Version 4 / Version 2
Размер файла : 914 Мбайт
Продолжительность : 24 м.
Общий поток : 5196 Кбит/сек
Программа кодирования : Lavf56.25.101
Библиотека кодирования : Lavf56.25.101
Видео
Идентификатор : 1
Формат : AVC
Формат/Информация : Advanced Video Codec
Профиль формата : [email protected]
Параметр CABAC формата : Нет
Параметр ReFrames формата : 3 кадра
Идентификатор кодека : V_MPEG4/ISO/AVC
Продолжительность : 24 м.
Битрейт : 5000 Кбит/сек
Ширина : 1920 пикселей
Высота : 1080 пикселей
Соотношение сторон : 16:9
Режим частоты кадров : Постоянный
Частота кадров : 25,000 кадров/сек
Цветовое пространство : YUV
Субдискретизация насыщенности : 4:2:0
Битовая глубина : 8 бит
Тип развёртки : Прогрессивная
Бит/(Пиксели*Кадры) : 0.096
Размер потока : 862 Мбайт (94%)
Библиотека кодирования : x264 core 148
Настройки программы : cabac=0 / ref=3 / deblock=1:0:0 / analyse=0x1:0x111 / me=hex / subme=7 / psy=1 / psy_rd=1.00:0.00 / mixed_ref=1 / me_range=16 / chroma_me=1 / trellis=1 / 8x8dct=0 / cqm=0 / deadzone=21,11 / fast_pskip=1 / chroma_qp_offset=-2 / threads=18 / lookahead_threads=3 / sliced_threads=0 / nr=0 / decimate=1 / interlaced=0 / bluray_compat=0 / constrained_intra=0 / bframes=0 / weightp=0 / keyint=250 / keyint_min=25 / scenecut=40 / intra_refresh=0 / rc_lookahead=40 / rc=abr / mbtree=1 / bitrate=5000 / ratetol=1.0 / qcomp=0.60 / qpmin=0 / qpmax=69 / qpstep=4 / ip_ratio=1.40 / aq=1:1.00
Default : Да
Forced : Нет
Аудио
Идентификатор : 2
Формат : AC-3
Формат/Информация : Audio Coding 3
Расширение режима : CM (complete main)
Параметр Endianness формата : Big
Идентификатор кодека : A_AC3
Продолжительность : 24 м.
Вид битрейта : Постоянный
Битрейт : 192 Кбит/сек
Каналы : 2 канала
Расположение каналов : Front: L R
Частота : 48,0 КГц
Битовая глубина : 16 бит
Метод сжатия : С потерями
Размер потока : 33,8 Мбайт (4%)
Default : Да
Forced : Нет
[Профиль]  [ЛС] 

qqss44

Moderator

Стаж: 9 лет 4 месяца

Сообщений: 5511

qqss44 · 04-Июн-17 17:21 (спустя 5 часов)

[Цитировать] 

drakula05 писал(а):
73238670от куда взялись эти 50.000 fps??? раздача моя и тех.данные вот
/ me=hex / subme=7 / me_range=16 /
а тут сцен-рип, так что все равно сомнительно))
доменное имя уберите с баннера РГ, незя
[Профиль]  [ЛС] 

drakula05

RG Русские сериалы

Стаж: 11 лет 1 месяц

Сообщений: 649

drakula05 · 04-Июн-17 17:28 (спустя 6 мин.)

[Цитировать] 

qqss44 писал(а):
73240697
drakula05 писал(а):
73238670от куда взялись эти 50.000 fps??? раздача моя и тех.данные вот
/ me=hex / subme=7 / me_range=16 /
а тут сцен-рип, так что все равно сомнительно))
доменное имя уберите с баннера РГ, незя
это исходник и не какой не рип это во первых, во вторых домена тут нет, давно ставим так.
[Профиль]  [ЛС] 

qqss44

Moderator

Стаж: 9 лет 4 месяца

Сообщений: 5511

qqss44 · 04-Июн-17 17:40 (спустя 12 мин., ред. 04-Июн-17 17:40)

[Цитировать] 

drakula05 писал(а):
73240750это исходник
если исходник, то уже и не сцен-рип?)) ну значит сцен-рип-исходник, тут источник без разницы
в том году помню скачал этот серик, только не помню от кого, вроде от вас же, так там никакой не исходник был 720, а пережатка, т.к. у исходника битрейт около 1500 кб/с был, пережимали чтоб на КЗ проходил по требованиям насколько я понял, ну или просто стеснялись малого битрейта, в результате раздутка хренового кач-ва. В итоге с ютюба качал 720, кач-во было лучше чем у пережаток и 720 и даже чем у 1080 на трекерах...
[Профиль]  [ЛС] 

wowa63

Стаж: 8 лет

Сообщений: 153


wowa63 · 04-Июн-17 17:47 (спустя 7 мин.)

[Цитировать] 

qqss44 писал(а):
73240822
drakula05 писал(а):
73240750это исходник
если исходник, то уже и не сцен-рип?)) ну значит сцен-рип-исходник, тут источник без разницы
в том году помню скачал этот серик, только не помню от кого, вроде от вас же, так там никакой не исходник был 720, а пережатка, т.к. у исходника битрейт около 1500 кб/с был, пережимали чтоб на КЗ проходил по требованиям насколько я понял, ну или просто стеснялись малого битрейта, в результате раздутка хренового кач-ва. В итоге с ютюба качал 720, кач-во было лучше чем у пережаток и 720 и даже чем у 1080 на трекерах...
ну интерессно, на оф.сайте сцен-рипы выкладывают по вашему??? сходите на оф сайт и посмотрите сами!!!
[Профиль]  [ЛС] 

drakula05

RG Русские сериалы

Стаж: 11 лет 1 месяц

Сообщений: 649

drakula05 · 04-Июн-17 17:57 (спустя 10 мин., ред. 04-Июн-17 17:57)

[Цитировать] 

у нас тут не кз и не надо правила смешивать я не первый год в группе правила знаю
пс. про банер вот официально разрешенные банеры на этом сайте
Релиз группа
[Профиль]  [ЛС] 

qqss44

Moderator

Стаж: 9 лет 4 месяца

Сообщений: 5511

qqss44 · 04-Июн-17 23:24 (спустя 5 часов, ред. 04-Июн-17 23:24)

[Цитировать] 

wowa63 писал(а):
73240861ну интерессно, на оф.сайте сцен-рипы выкладывают по вашему???
конечно)) они берут исходную запись, делают по быстроляну сцен-рип в один проход с настройками, что в МИ, и выкладывают в онлайн сервисы. Вы его выкачиваете и называете исходником, подразумевая, что ничего с ним не делали и выложили как есть, однако, сцен-рипом он быть не перестал.
drakula05 писал(а):
73240885пс. про банер вот официально разрешенные банеры на этом сайте
баннеры РГ размещать можно, естественно, но у вас был с .com баннер, такие незя
Цитата:
правила знаю
в русских про HD контент и нет ничего в правилах оказывается, там все под SD заточено, так что статус и проверено может стоять в принципе, это Сударыня будет решать, она тут главная, я так, мимо проходил))
[Профиль]  [ЛС] 

Сударыня

Moderator gray

Стаж: 11 лет 7 месяцев

Сообщений: 11160

Сударыня · 05-Июн-17 12:02 (спустя 12 часов)

[Цитировать] 

74743fg6436
Надо добавить графу - Субтитры.
Добавьте, пожалуйста, сэмпл.
Как сделать семпл
[Профиль]  [ЛС] 

Butсher

Стаж: 7 лет

Сообщений: 635

Butсher · 06-Июн-17 15:42 (спустя 1 день 3 часа, ред. 09-Июн-17 19:17)

[Цитировать] 

Как 1я. серия в 17ой. оказалась?
[Профиль]  [ЛС] 

Сударыня

Moderator gray

Стаж: 11 лет 7 месяцев

Сообщений: 11160

Сударыня · 09-Июн-17 20:22 (спустя 3 дня)

[Цитировать] 

74743fg6436
У вас 1-я серия и 17-я идентичны.
[Профиль]  [ЛС] 

Jack Sallivan

Стаж: 4 года 8 месяцев

Сообщений: 12


Jack Sallivan · 10-Июн-17 23:53 (спустя 1 день 3 часа)

[Цитировать] 

Товарищи! Откройте раздачу, не жадничайте,скорость совсем караул!!!!!
[Профиль]  [ЛС] 

hd--dvd

Стаж: 7 лет 8 месяцев

Сообщений: 38

hd--dvd · 14-Июн-17 21:38 (спустя 3 дня)

[Цитировать] 

Когда появится 18 и 19-я серии?
[Профиль]  [ЛС] 

Fantasmagor9

Стаж: 8 лет 6 месяцев

Сообщений: 104

Fantasmagor9 · 28-Ноя-17 04:35 (спустя 5 месяцев 13 дней)

[Цитировать] 

Заметил рассинхрон в полсекунды с 7 по 16 серии включительно.
Неистово прошу исправить сие безобразие.
[Профиль]  [ЛС] 

petar2947

Стаж: 1 месяц

Сообщений: 2


petar2947 · 10-Ноя-18 02:32 (спустя 11 месяцев)

[Цитировать] 

У вас также есть кухня 1080p?
[Профиль]  [ЛС] 
 
Ответить
Loading...
Error