Спас под берёзами / Серии: 1-12 из 12 (Леонид Эйдлин) [2003, Драма, мелодрама, DVDRip-AVC]

Страницы:  1

Ответить
Автор
Сообщение

Sanechek.

Стаж: 2 года 7 месяцев

Сообщений: 46

Sanechek. · 26-Июн-17 13:30 (1 год 4 месяца назад)

Спас под берёзами
Год выпуска: 2003
Производство: Студия "2B"
Жанр: Драма, мелодрама
Продолжительность: 12 х ~ 00:44:00
Субтитры: нет
Режиссёр: Леонид Эйдлин
В ролях: Юрий Беляев, Георгий Тараторкин, Надежда Маркина, Елена Панова, Дарья Семёнова, Ирина Муравьёва, Алексей Завьялов, Игорь Ясулович, Александр Клюквин, Ирина Розанова, Ирина Пегова, Елена Галибина, Анатолий Белый, Ольга Лысак, Геннадий Назаров, Людмила Аринина, Юрий Чернов, Раиса Рязанова, Евдокия Германова, Юрий Кузьменков, Владимир Носик, Валерий Золотухин, Пётр Фёдоров мл., Александр Потапов, Валентин Никулин, Константин Бердиков, Олег Кассин, Юрий Думчев, Григорий Сиятвинда, Юлиан Балмусов, Людмила Щербинина, Александр Ануров мл., Дмитрий Ефремов, Владимир Топцов, Александр Карпенко (III), Владислав Ветров, Юлия Ванюкова, Владимир Краснов (II), Валерий Жуков, Людмила Шувалова (II)
Описание: "Спас под берёзами" - старинный московский храм, построенный несколько веков назад и к середине 20-го пришедший в полный упадок. Но в один прекрасный день в храме появился отец Георгий, который решил, во что бы то ни стало восстановить святыню. На собранные скромные средства провели ремонтные работы и закупили иконы. Вскоре в храме сложился причт, появились певчие, и в церковь потянулись люди. "Спас под берёзами» - это рассказ о жизни простых горожан, объединенных вокруг возрождающегося прихода. Этот сериал складывается из отдельных новелл, порой вовсе не связанных с церковью. В центре каждой истории окажутся самые разные люди – далеко не все верующие, далеко не все ангелы… Их жизненные проблемы не замкнуты на церкви, иной раз – далеки от нее. И любовь, и низость, и готовность опустить руки перед бедой, и семейные сложности, и взлеты духа, и падения – ниже некуда… Словом, всё, как у людей… но живущих возле храма, куда очень просто зайти, если возникнет желание. "Спас под берёзами" - проект светский, и в тоже время, это первая попытка прикоснуться к теме православия в жанре телевизионного многосерийного фильма.
Все раздачи сериала / Семпл
Релиз от :
Качество: DVDRip-AVC
Формат: MKV
Видео кодек: H.264
Аудио кодек: AC3
Видео: MPEG4 Video (H264), 706х[email protected]х568, 25fps, 2450 Kbps, bit/pixel 0.244
Аудио: AC3, 48000Hz, stereo, 224 kbps, 2 ch
Реклама: Нет
MI
x264 [info]: frame I:469 Avg QP:18.89 size: 61694
x264 [info]: frame P:30159 Avg QP:20.93 size: 19607
x264 [info]: frame B:35360 Avg QP:21.16 size: 5317
==================================================================
Общее
Уникальный идентификатор : 207566225050358152204780710550485743051 (0x9C27CD02FC0ADA9E85FC09E442CA35CB)
Полное имя : D:\Ф А Й Л Ы\Спас под берёзами (2003)\01. Отец Георгий.mkv
Формат : Matroska
Версия формата : Version 2
Размер файла : 842 Мбайт
Продолжительность : 43 м. 59 с.
Общий поток : 2675 Кбит/сек
Дата кодирования : UTC 2017-06-19 11:03:01
Программа кодирования : mkvmerge v7.8.0 ('River Man') 32bit built on Apr 3 2015 12:11:22
Библиотека кодирования : libebml v1.3.1 + libmatroska v1.4.2
Видео
Идентификатор : 1
Формат : AVC
Формат/Информация : Advanced Video Codec
Профиль формата : [email protected]
Параметр CABAC формата : Да
Параметр ReFrames формата : 12 кадров
Идентификатор кодека : V_MPEG4/ISO/AVC
Продолжительность : 43 м. 59 с.
Битрейт : 2450 Кбит/сек
Ширина : 706 пикселей
Высота : 568 пикселей
Соотношение сторон : 4:3
Режим частоты кадров : Постоянный
Частота кадров : 25,000 кадров/сек
Цветовое пространство : YUV
Субдискретизация насыщенности : 4:2:0
Битовая глубина : 8 бит
Тип развёртки : Прогрессивная
Бит/(Пиксели*Кадры) : 0.244
Размер потока : 755 Мбайт (90%)
Библиотека кодирования : x264 core 148 r2744kMod b97ae06
Настройки программы : cabac=1 / ref=12 / deblock=1:-2:-2 / analyse=0x3:0x133 / me=umh / subme=10 / psy=1 / fade_compensate=0.00 / psy_rd=1.05:0.10 / mixed_ref=1 / me_range=32 / chroma_me=1 / trellis=2 / 8x8dct=1 / cqm=0 / deadzone=21,11 / fast_pskip=0 / chroma_qp_offset=-3 / threads=6 / lookahead_threads=1 / sliced_threads=0 / nr=0 / decimate=0 / interlaced=0 / bluray_compat=0 / constrained_intra=0 / bframes=8 / b_pyramid=2 / b_adapt=2 / b_bias=0 / direct=3 / weightb=1 / open_gop=0 / weightp=2 / keyint=250 / keyint_min=25 / scenecut=40 / intra_refresh=0 / rc=2pass / mbtree=0 / bitrate=2450 / ratetol=1.0 / qcomp=0.63 / qpmin=0 / qpmax=39 / qpstep=4 / cplxblur=20.0 / qblur=0.5 / ip_ratio=1.15 / pb_ratio=1.30 / aq=1:1.00
Язык : Russian
Default : Да
Forced : Нет
Цветовой диапазон : Limited
Основные цвета : BT.601 PAL
Характеристики трансфера : BT.470 System B, BT.470 System G
Коэффициенты матрицы : BT.601
Аудио
Идентификатор : 2
Формат : AC-3
Формат/Информация : Audio Coding 3
Параметр Endianness формата : Big
Идентификатор кодека : A_AC3
Продолжительность : 43 м. 59 с.
Вид битрейта : Постоянный
Битрейт : 224 Кбит/сек
Каналы : 2 канала
Расположение каналов : Front: L R
Частота : 48,0 КГц
Частота кадров : 31,250 кадров/сек (1536 spf)
Битовая глубина : 16 бит
Метод сжатия : С потерями
Размер потока : 70,5 Мбайт (8%)
Язык : Russian
ServiceKind/String : Complete Main
Default : Да
Forced : Нет
Скриншоты
Download
Чтобы скачать .torrent файл необходима регистрация
Сайт не распространяет и не хранит электронные версии произведений, а лишь предоставляет доступ к создаваемому пользователями каталогу ссылок на торрент-файлы, которые содержат только списки хеш-сумм
[Профиль]  [ЛС] 
 

сергей плетюхов

Стаж: 6 лет 4 месяца

Сообщений: 246

сергей плетюхов · 06-Ноя-18 07:14 (спустя 1 год 4 месяца)

[Цитировать] 

Такой замечательный сериал и ни одного комментария....
[Профиль]  [ЛС] 

al'kar

Стаж: 8 лет 1 месяц

Сообщений: 11


al'kar · 07-Ноя-18 22:02 (спустя 1 день 14 часов)

[Цитировать] 

Просто впечатления от фильма - в глубине души, такое сложно вербализировать. Многие скачали, многие поблагодарили.
[Профиль]  [ЛС] 

сергей плетюхов

Стаж: 6 лет 4 месяца

Сообщений: 246

сергей плетюхов · 08-Ноя-18 17:28 (спустя 19 часов)

[Цитировать] 

al'kar писал(а):
76277899Просто впечатления от фильма - в глубине души, такое сложно вербализировать. Многие скачали, многие поблагодарили.
Это верно. Я только пару серий смотрел, вот скачаю теперь всё. Спасибо за релиз)
[Профиль]  [ЛС] 
 
Ответить
Loading...
Error